Поиск

(Brazilian Jazz, Samba Jazz, Bossa Nova) [CD] Paulinho da Viola - Samba E Choro Negro - 1993, APE (tracks+.cue), lossless

(Brazilian Jazz, Samba Jazz, Bossa Nova) [CD] Paulinho da Viola - Samba E Choro Negro - 1993, APE (tracks+.cue), lossless
Треклист:
Paulinho da Viola / Samba E Choro Negro
Жанр: Brazilian Jazz, Samba Jazz, Bossa Nova
Носитель: CD
Страна-производитель диска (релиза): Brazil
Год издания: 1993
Издатель (лейбл): World Network & WDR - BRASIL
Номер по каталогу: 6759
UPC: 785965583422
Страна исполнителя (группы): Brazil
Аудиокодек: APE (*.ape)
Тип рипа: tracks+.cue
Битрейт аудио: lossless
Продолжительность: 50:55
Источник (релизер): собственный рип
Наличие сканов в содержимом раздачи: да
Треклист:
1. Onde A Dor Não Tem Razão 2:31
2. Coração Leviano 3:08
3. Rumo Dos Ventos 2:37
4. Recado - Argumento - Guardei Minha Viola 5:18
5. Roendo As Unhas 3:47
6. Sinal Fechado 3:09
7. Só O Tempo 2:40
8. Sarau Para Radamés 3:39
9. Choro Negro 3:21
10. Choro De Memórias 2:34
11. Coração Imprudente 2:16
12. Pra Jogar No Oceano 4:08
13. Não É Assim - Amor É Assim - Recomecar 11:44
 
Лог создания рипа
Exact Audio Copy V1.0 beta 6 from 9. April 2015
EAC extraction logfile from 7. August 2016, 21:27
Paulinho da Viola / Samba E Choro Negro
Used drive : ATAPI iHES208 2 Adapter: 1 ID: 0
Read mode : Secure
Utilize accurate stream : Yes
Defeat audio cache : Yes
Make use of C2 pointers : No
Read offset correction : 6
Overread into Lead-In and Lead-Out : No
Fill up missing offset samples with silence : Yes
Delete leading and trailing silent blocks : No
Null samples used in CRC calculations : Yes
Used interface : Native Win32 interface for Win NT & 2000
Gap handling : Appended to previous track
Used output format : User Defined Encoder
Selected bitrate : 1024 kBit/s
Quality : High
Add ID3 tag : No
Command line compressor : C:\Program Files (x86)\Monkey's Audio\wapet.exe
Additional command line options : %dest% -t "Genre=%genre%" -t "Artist=%artist%" -t "Title=%title%" -t "Album=%albumtitle%" -t "Year=%year%" -t "Track=%tracknr%" -t "Comment=%comment%" mac.exe %source% %dest% -c4000
TOC of the extracted CD
Track | Start | Length | Start sector | End sector
---------------------------------------------------------
1 | 0:00.00 | 2:30.57 | 0 | 11306
2 | 2:30.57 | 3:08.63 | 11307 | 25469
3 | 5:39.45 | 2:35.15 | 25470 | 37109
4 | 8:14.60 | 5:20.62 | 37110 | 61171
5 | 13:35.47 | 3:49.00 | 61172 | 78346
6 | 17:24.47 | 3:05.28 | 78347 | 92249
7 | 20:30.00 | 2:40.15 | 92250 | 104264
8 | 23:10.15 | 3:41.47 | 104265 | 120886
9 | 26:51.62 | 3:19.10 | 120887 | 135821
10 | 30:10.72 | 2:35.48 | 135822 | 147494
11 | 32:46.45 | 2:15.37 | 147495 | 157656
12 | 35:02.07 | 4:08.30 | 157657 | 176286
13 | 39:10.37 | 11:42.25 | 176287 | 228961
Track 1
Filename G:\Paulinho da Viola\(1993) Samba E Choro Negro\Paulinho da Viola - Samba E Choro Negro - 01. Onde A Dor Não Tem Razão.wav
Pre-gap length 0:00:02.00
Peak level 96.8 %
Extraction speed 4.5 X
Track quality 100.0 %
Test CRC 06E1A0C5
Copy CRC 06E1A0C5
Accurately ripped (confidence 8) [870B6041] (AR v2)
Copy OK
Track 2
Filename G:\Paulinho da Viola\(1993) Samba E Choro Negro\Paulinho da Viola - Samba E Choro Negro - 02. Coração Leviano.wav
Pre-gap length 0:00:01.12
Peak level 88.8 %
Extraction speed 5.1 X
Track quality 100.0 %
Test CRC 0321F8A9
Copy CRC 0321F8A9
Accurately ripped (confidence 8) [A113B8D6] (AR v2)
Copy OK
Track 3
Filename G:\Paulinho da Viola\(1993) Samba E Choro Negro\Paulinho da Viola - Samba E Choro Negro - 03. Rumo Dos Ventos.wav
Pre-gap length 0:00:01.65
Peak level 99.6 %
Extraction speed 5.3 X
Track quality 100.0 %
Test CRC A88C3DC5
Copy CRC A88C3DC5
Accurately ripped (confidence 8) [425FE8A4] (AR v2)
Copy OK
Track 4
Filename G:\Paulinho da Viola\(1993) Samba E Choro Negro\Paulinho da Viola - Samba E Choro Negro - 04. Recado - Argumento - Guardei Minha Viola.wav
Peak level 99.2 %
Extraction speed 6.3 X
Track quality 100.0 %
Test CRC 9F2773E9
Copy CRC 9F2773E9
Accurately ripped (confidence 9) [B1E83109] (AR v2)
Copy OK
Track 5
Filename G:\Paulinho da Viola\(1993) Samba E Choro Negro\Paulinho da Viola - Samba E Choro Negro - 05. Roendo As Unhas.wav
Pre-gap length 0:00:02.17
Peak level 98.6 %
Extraction speed 6.6 X
Track quality 100.0 %
Test CRC EFA1075C
Copy CRC EFA1075C
Accurately ripped (confidence 8) [3813D1C8] (AR v2)
Copy OK
Track 6
Filename G:\Paulinho da Viola\(1993) Samba E Choro Negro\Paulinho da Viola - Samba E Choro Negro - 06. Sinal Fechado.wav
Pre-gap length 0:00:03.35
Peak level 82.6 %
Extraction speed 6.7 X
Track quality 100.0 %
Test CRC 962CF424
Copy CRC 962CF424
Accurately ripped (confidence 8) [527A92CA] (AR v2)
Copy OK
Track 7
Filename G:\Paulinho da Viola\(1993) Samba E Choro Negro\Paulinho da Viola - Samba E Choro Negro - 07. Só O Tempo.wav
Peak level 86.8 %
Extraction speed 6.7 X
Track quality 100.0 %
Test CRC D879395A
Copy CRC D879395A
Accurately ripped (confidence 8) [A89BA5D0] (AR v2)
Copy OK
Track 8
Filename G:\Paulinho da Viola\(1993) Samba E Choro Negro\Paulinho da Viola - Samba E Choro Negro - 08. Sarau Para Radamés.wav
Peak level 89.8 %
Extraction speed 7.4 X
Track quality 100.0 %
Test CRC 5609784D
Copy CRC 5609784D
Accurately ripped (confidence 8) [8A0F04E2] (AR v2)
Copy OK
Track 9
Filename G:\Paulinho da Viola\(1993) Samba E Choro Negro\Paulinho da Viola - Samba E Choro Negro - 09. Choro Negro.wav
Pre-gap length 0:00:01.62
Peak level 90.6 %
Extraction speed 7.6 X
Track quality 100.0 %
Test CRC 16BA3B5D
Copy CRC 16BA3B5D
Accurately ripped (confidence 8) [750D9C88] (AR v2)
Copy OK
Track 10
Filename G:\Paulinho da Viola\(1993) Samba E Choro Negro\Paulinho da Viola - Samba E Choro Negro - 10. Choro De Memórias.wav
Peak level 78.2 %
Extraction speed 7.5 X
Track quality 100.0 %
Test CRC DE092AAB
Copy CRC DE092AAB
Accurately ripped (confidence 8) [0CEC5272] (AR v2)
Copy OK
Track 11
Filename G:\Paulinho da Viola\(1993) Samba E Choro Negro\Paulinho da Viola - Samba E Choro Negro - 11. Coração Imprudente.wav
Pre-gap length 0:00:01.43
Peak level 86.0 %
Extraction speed 7.4 X
Track quality 100.0 %
Test CRC 97CBD0A4
Copy CRC 97CBD0A4
Accurately ripped (confidence 8) [5659C24C] (AR v2)
Copy OK
Track 12
Filename G:\Paulinho da Viola\(1993) Samba E Choro Negro\Paulinho da Viola - Samba E Choro Negro - 12. Pra Jogar No Oceano.wav
Pre-gap length 0:00:01.12
Peak level 100.0 %
Extraction speed 8.4 X
Track quality 100.0 %
Test CRC BF1EEB25
Copy CRC BF1EEB25
Accurately ripped (confidence 8) [729BB8EF] (AR v2)
Copy OK
Track 13
Filename G:\Paulinho da Viola\(1993) Samba E Choro Negro\Paulinho da Viola - Samba E Choro Negro - 13. Não É Assim - Amor É Assim - Recomeçar.wav
Pre-gap length 0:00:01.40
Peak level 98.7 %
Extraction speed 9.8 X
Track quality 100.0 %
Test CRC 1AE25981
Copy CRC 1AE25981
Accurately ripped (confidence 8) [C06CF65F] (AR v2)
Copy OK
All tracks accurately ripped
No errors occurred
End of status report
==== Log checksum A06CEF3278451A7C1834ED8E4E044AECED05EABBCC271413E9B0632908CA6A86 ====
 
Содержание индексной карты (.CUE)
REM GENRE Latin
REM DATE 1993
REM DISCID 990BEC0D
REM COMMENT "ExactAudioCopy v1.0b6"
PERFORMER "Paulinho da Viola"
TITLE "Samba E Choro Negro"
FILE "Paulinho da Viola - Samba E Choro Negro - 01. Onde A Dor Não Tem Razão.wav" WAVE
TRACK 01 AUDIO
TITLE "Onde A Dor Nao Tem Razao"
PERFORMER "Paulinho da Viola"
INDEX 01 00:00:00
TRACK 02 AUDIO
TITLE "Coracao Leviano"
PERFORMER "Paulinho da Viola"
INDEX 00 02:29:45
FILE "Paulinho da Viola - Samba E Choro Negro - 02. Coração Leviano.wav" WAVE
INDEX 01 00:00:00
TRACK 03 AUDIO
TITLE "Rumo Dos Ventos"
PERFORMER "Paulinho da Viola"
INDEX 00 03:06:73
FILE "Paulinho da Viola - Samba E Choro Negro - 03. Rumo Dos Ventos.wav" WAVE
INDEX 01 00:00:00
FILE "Paulinho da Viola - Samba E Choro Negro - 04. Recado - Argumento - Guardei Minha Viola.wav" WAVE
TRACK 04 AUDIO
TITLE "Recado - Argumento - Guardei Minha Viola"
PERFORMER "Paulinho da Viola"
INDEX 01 00:00:00
TRACK 05 AUDIO
TITLE "Roendo As Unhas"
PERFORMER "Paulinho da Viola"
INDEX 00 05:18:45
FILE "Paulinho da Viola - Samba E Choro Negro - 05. Roendo As Unhas.wav" WAVE
INDEX 01 00:00:00
TRACK 06 AUDIO
TITLE "Sinal Fechado"
PERFORMER "Paulinho da Viola"
INDEX 00 03:45:40
FILE "Paulinho da Viola - Samba E Choro Negro - 06. Sinal Fechado.wav" WAVE
INDEX 01 00:00:00
FILE "Paulinho da Viola - Samba E Choro Negro - 07. Só O Tempo.wav" WAVE
TRACK 07 AUDIO
TITLE "So O Tempo"
PERFORMER "Paulinho da Viola"
INDEX 01 00:00:00
FILE "Paulinho da Viola - Samba E Choro Negro - 08. Sarau Para Radamés.wav" WAVE
TRACK 08 AUDIO
TITLE "Sarau Para Radames"
PERFORMER "Paulinho da Viola"
INDEX 01 00:00:00
TRACK 09 AUDIO
TITLE "Choro Negro"
PERFORMER "Paulinho da Viola"
INDEX 00 03:39:60
FILE "Paulinho da Viola - Samba E Choro Negro - 09. Choro Negro.wav" WAVE
INDEX 01 00:00:00
FILE "Paulinho da Viola - Samba E Choro Negro - 10. Choro De Memórias.wav" WAVE
TRACK 10 AUDIO
TITLE "Choro De Memorias"
PERFORMER "Paulinho da Viola"
INDEX 01 00:00:00
TRACK 11 AUDIO
TITLE "Coracao Imprudente"
PERFORMER "Paulinho da Viola"
INDEX 00 02:34:05
FILE "Paulinho da Viola - Samba E Choro Negro - 11. Coração Imprudente.wav" WAVE
INDEX 01 00:00:00
TRACK 12 AUDIO
TITLE "Pra Jogar No Oceano"
PERFORMER "Paulinho da Viola"
INDEX 00 02:14:25
FILE "Paulinho da Viola - Samba E Choro Negro - 12. Pra Jogar No Oceano.wav" WAVE
INDEX 01 00:00:00
TRACK 13 AUDIO
TITLE "Nao E Assim - Amor E Assim - Recomecar"
PERFORMER "Paulinho da Viola"
INDEX 00 04:06:65
FILE "Paulinho da Viola - Samba E Choro Negro - 13. Não É Assim - Amor É Assim - Recomeçar.wav" WAVE
INDEX 01 00:00:00
(14.08.2016) Перезалит.
17:42
278
Нет комментариев. Ваш будет первым!