Поиск

(Tzadik, Ethnic Jazz, Jewish) [CD] Haggai Cohen-Milo - Penguin - 2014, FLAC (tracks+.cue), lossless

(Tzadik, Ethnic Jazz, Jewish) [CD] Haggai Cohen-Milo - Penguin - 2014, FLAC (tracks+.cue), lossless
Треклист:

Penguin
Haggai Cohen-Milo
Жанр: Ethnic Jazz, Jewish
Страна-производитель диска: USA
Год издания: 2014
Издатель (лейбл): Tzadik
Номер по каталогу: TZ 8184
Страна исполнителя (группы): Israel
Аудиокодек: FLAC (*.flac)
Тип рипа: tracks+.cue
Битрейт аудио: lossless
Продолжительность: 50:04
Источник (релизер): спасибо Dewcey
Наличие сканов: да
Треклист:
1. Introduction
2. The Garden
3. Family
4. Silent Wish
5. Avak
6. Penguin
7. Seizure Cat
8. Lavan Lavan
9. Wallak Ya Habib
 
Лог создания рипа
Exact Audio Copy V1.1 from 23. June 2015
EAC extraction logfile from 4. February 2016, 10:22
Haggai Cohen-Milo / Penguin
Used drive : HL-DT-STDVDRAM GH24NSD1 Adapter: 1 ID: 0
Read mode : Burst
Read offset correction : 6
Overread into Lead-In and Lead-Out : No
Fill up missing offset samples with silence : Yes
Delete leading and trailing silent blocks : No
Null samples used in CRC calculations : Yes
Used interface : Native Win32 interface for Win NT & 2000
Gap handling : Appended to previous track
Used output format : User Defined Encoder
Selected bitrate : 1024 kBit/s
Quality : High
Add ID3 tag : No
Command line compressor : C:\Program Files (x86)\Exact Audio Copy\Flac\flac.exe
Additional command line options : -6 -V -T "ARTIST=%artist%" -T "TITLE=%title%" -T "ALBUM=%albumtitle%" -T "DATE=%year%" -T "TRACKNUMBER=%tracknr%" -T "GENRE=%genre%" -T "COMMENT=%comment%" -T "BAND=%albuminterpret%" -T "COMPOSER=%composer%" %haslyrics%--tag-from-file=LYRICS="%lyricsfile%"%haslyrics% -T "DISCNUMBER=%cdnumber%" -T "TOTALDISCS=%totalcds%" -T "TOTALTRACKS=%numtracks%" %hascover%--picture="%coverfile%"%hascover% %source% -o %dest%
TOC of the extracted CD
Track | Start | Length | Start sector | End sector
---------------------------------------------------------
1 | 0:00.00 | 1:22.54 | 0 | 6203
2 | 1:22.54 | 5:08.69 | 6204 | 29372
3 | 6:31.48 | 6:57.26 | 29373 | 60673
4 | 13:28.74 | 5:03.23 | 60674 | 83421
5 | 18:32.22 | 7:47.32 | 83422 | 118478
6 | 26:19.54 | 6:03.06 | 118479 | 145709
7 | 32:22.60 | 5:44.65 | 145710 | 171574
8 | 38:07.50 | 4:45.30 | 171575 | 192979
9 | 42:53.05 | 7:11.54 | 192980 | 225358
Track 1
Filename D:\01 - Introduction.wav
Pre-gap length 0:00:02.00
Peak level 86.4 %
Extraction speed 3.6 X
Test CRC 4A36549D
Copy CRC 4A36549D
Accurately ripped (confidence 2) [0EF472FF] (AR v2)
Copy OK
Track 2
Filename D:\02 - The garden.wav
Peak level 94.6 %
Extraction speed 3.9 X
Test CRC 703AC9BA
Copy CRC 703AC9BA
Accurately ripped (confidence 2) [9E4993CD] (AR v2)
Copy OK
Track 3
Filename D:\03 - Family.wav
Peak level 95.5 %
Extraction speed 4.6 X
Test CRC 3293D666
Copy CRC 3293D666
Accurately ripped (confidence 2) [DAEAA6D2] (AR v2)
Copy OK
Track 4
Filename D:\04 - Silent wish.wav
Peak level 94.1 %
Extraction speed 5.1 X
Test CRC B51414F0
Copy CRC B51414F0
Accurately ripped (confidence 2) [FDDDFF56] (AR v2)
Copy OK
Track 5
Filename D:\05 - Avak.wav
Peak level 91.1 %
Extraction speed 5.7 X
Test CRC 4710F880
Copy CRC 4710F880
Accurately ripped (confidence 2) [EFE672AD] (AR v2)
Copy OK
Track 6
Filename D:\06 - Penguin.wav
Peak level 95.0 %
Extraction speed 6.1 X
Test CRC 96D693CA
Copy CRC 96D693CA
Accurately ripped (confidence 2) [CE5AE01F] (AR v2)
Copy OK
Track 7
Filename D:\07 - Seizure cat.wav
Peak level 98.3 %
Extraction speed 6.6 X
Test CRC A46954DC
Copy CRC A46954DC
Accurately ripped (confidence 2) [6DF2AAFC] (AR v2)
Copy OK
Track 8
Filename D:\08 - Lavan lavan.wav
Peak level 97.5 %
Extraction speed 7.0 X
Test CRC 2A836742
Copy CRC 2A836742
Accurately ripped (confidence 2) [81D99558] (AR v2)
Copy OK
Track 9
Filename D:\09 - Wallak ya habib.wav
Peak level 98.5 %
Extraction speed 7.3 X
Test CRC 00509554
Copy CRC 00509554
Accurately ripped (confidence 2) [E2E87A90] (AR v2)
Copy OK
All tracks accurately ripped
No errors occurred
End of status report
---- CUETools DB Plugin V2.1.6
[CTDB TOCID: b74ZnPWmX3dhyZStGTNvpAUZNEY-] found
Submit result: b74ZnPWmX3dhyZStGTNvpAUZNEY- has been confirmed
Track | CTDB Status
1 | (3/3) Accurately ripped
2 | (3/3) Accurately ripped
3 | (3/3) Accurately ripped
4 | (3/3) Accurately ripped
5 | (3/3) Accurately ripped
6 | (3/3) Accurately ripped
7 | (3/3) Accurately ripped
8 | (3/3) Accurately ripped
9 | (3/3) Accurately ripped
==== Log checksum 40FDC052F278C5E259116AA5571016136DC047E781CDBA9E9B6ED5A0A3ED1092 ====
 
Содержание индексной карты (.CUE)
REM GENRE Jazz
REM DATE 2014
REM DISCID 760BBC09
REM COMMENT "ExactAudioCopy v1.1"
PERFORMER "Haggai Cohen-Milo"
TITLE "Penguin"
FILE "01 - Introduction.wav" WAVE
TRACK 01 AUDIO
TITLE "Introduction"
PERFORMER "Haggai Cohen-Milo"
FLAGS DCP
INDEX 01 00:00:00
FILE "02 - The garden.wav" WAVE
TRACK 02 AUDIO
TITLE "The garden"
PERFORMER "Haggai Cohen-Milo"
FLAGS DCP
INDEX 01 00:00:00
FILE "03 - Family.wav" WAVE
TRACK 03 AUDIO
TITLE "Family"
PERFORMER "Haggai Cohen-Milo"
FLAGS DCP
INDEX 01 00:00:00
FILE "04 - Silent wish.wav" WAVE
TRACK 04 AUDIO
TITLE "Silent wish"
PERFORMER "Haggai Cohen-Milo"
FLAGS DCP
INDEX 01 00:00:00
FILE "05 - Avak.wav" WAVE
TRACK 05 AUDIO
TITLE "Avak"
PERFORMER "Haggai Cohen-Milo"
FLAGS DCP
INDEX 01 00:00:00
FILE "06 - Penguin.wav" WAVE
TRACK 06 AUDIO
TITLE "Penguin"
PERFORMER "Haggai Cohen-Milo"
FLAGS DCP
INDEX 01 00:00:00
FILE "07 - Seizure cat.wav" WAVE
TRACK 07 AUDIO
TITLE "Seizure cat"
PERFORMER "Haggai Cohen-Milo"
FLAGS DCP
INDEX 01 00:00:00
FILE "08 - Lavan lavan.wav" WAVE
TRACK 08 AUDIO
TITLE "Lavan lavan"
PERFORMER "Haggai Cohen-Milo"
FLAGS DCP
INDEX 01 00:00:00
FILE "09 - Wallak ya habib.wav" WAVE
TRACK 09 AUDIO
TITLE "Wallak ya habib"
PERFORMER "Haggai Cohen-Milo"
FLAGS DCP
INDEX 01 00:00:00
 
Состав
Matan Chapnizky - tenor sax, soprano sax
Evan Francis - alto sax
Shanir Ezra Blumenkranz - oud
Nadav Remez - guitar
Mateo Lugo - guitar
Haggai Cohen-Milo - bass, compositions
Ziv Ravitz - drums
21:03
301
Нет комментариев. Ваш будет первым!