Поиск

(Trumpet Smooth Jazz) Chris Botti - To Love Again - 2006, FLAC (tracks), lossless

Треклист:
Chris Botti - To Love Again
Жанр: Trumpet Smooth Jazz
Год выпуска: 2006
Формат: FLAC (tracks)
Трэклист:
Tracks:
1 Embraceable You Gershwin, Gershwin 4:25
2 What Are You Doing the Rest of Your Life? Bergman, Bergman, LeGrand 5:05
3 My One and Only Love Wood, Mellin 5:41
4 Let There Be Love Rand, Grant 3:12
5 What's New? Haggart, Burke 3:59
6 Good Morning Heartache Higginbotham, Fisher, Drake 6:13
7 To Love Again Botti, Pena 4:38
8 Are You Lonesome Tonight? Handman, Turk 4:01
9 Lover Man Sherman, Ramirez, Davis 4:50
10 I'll Be Seeing You Kahal, Fain 4:18
11 Pennies from Heaven Burke 3:46
12 Here's That Rainy Day VanHeusen, Burke 5:07
13 Smile Parsons, Turner, Chaplin
Billy Childs - piano
Chris Botti - trumpet
Christian McBride - bass instrument
Paulinho Da Costa - percussion
Peter Erskine - drums
Доп. информация:
Специально для boyara07 с благодарностью за все раздачи Ботти на трекере.
Рип мой, с фирменного CD, все как положено: сканы, cue, m3u, log, md5.
 
Отчёт EAC
EAC extraction logfile from 22. July 2007, 13:06 for CD
Chris Botti / To Love Again (2006) [FLAC]
Used drive : HL-DT-STDVDRAM GSA-H10N Adapter: 2 ID: 0
Read mode : Secure with NO C2, accurate stream, disable cache
Read offset correction : 667
Overread into Lead-In and Lead-Out : No
Used output format : Internal WAV Routines
44.100 Hz; 16 Bit; Stereo
Other options :
Fill up missing offset samples with silence : Yes
Delete leading and trailing silent blocks : No
Native Win32 interface for Win NT & 2000
Track 1
Filename E:\01 - Embraceable You.wav
Pre-gap length 0:00:02.00
Peak level 82.3 %
Track quality 99.9 %
Test CRC E3D1F1F6
Copy CRC E3D1F1F6
Copy OK
Track 2
Filename E:\02 - What Are You Doing the Rest of Your Life (with Sting).wav
Pre-gap length 0:00:00.96
Peak level 100.0 %
Track quality 100.0 %
Test CRC 0C539AC7
Copy CRC 0C539AC7
Copy OK
Track 3
Filename E:\03 - My One and Only Love (with Paula Cole).wav
Pre-gap length 0:00:00.09
Peak level 74.9 %
Track quality 100.0 %
Test CRC 097D81A5
Copy CRC 097D81A5
Copy OK
Track 4
Filename E:\04 - Let There Be Love (with Michael Buble).wav
Pre-gap length 0:00:00.49
Peak level 100.0 %
Track quality 100.0 %
Test CRC C6EBF5B6
Copy CRC C6EBF5B6
Copy OK
Track 5
Filename E:\05 - What's New.wav
Pre-gap length 0:00:00.58
Peak level 88.2 %
Track quality 100.0 %
Test CRC 862685C3
Copy CRC 862685C3
Copy OK
Track 6
Filename E:\06 - Good Morning Heartache (with Jill Scott).wav
Pre-gap length 0:00:00.69
Peak level 98.9 %
Track quality 100.0 %
Test CRC 5AA5511C
Copy CRC 5AA5511C
Copy OK
Track 7
Filename E:\07 - To Love Again.wav
Pre-gap length 0:00:00.68
Peak level 95.9 %
Track quality 100.0 %
Test CRC 572FDCFA
Copy CRC 572FDCFA
Copy OK
Track 8
Filename E:\08 - Are You Lonesome Tonight (with Paul Buchanan).wav
Pre-gap length 0:00:01.26
Peak level 90.3 %
Track quality 99.9 %
Test CRC 224325C8
Copy CRC 224325C8
Copy OK
Track 9
Filename E:\09 - Lover Man (with Gladys Knight).wav
Pre-gap length 0:00:01.25
Peak level 100.0 %
Track quality 100.0 %
Test CRC C133733C
Copy CRC C133733C
Copy OK
Track 10
Filename E:\10 - I'll Be Seeing You.wav
Pre-gap length 0:00:00.92
Peak level 100.0 %
Track quality 100.0 %
Test CRC 96D696F4
Copy CRC 96D696F4
Copy OK
Track 11
Filename E:\11 - Pennies from Heaven (with Renee Olstead).wav
Pre-gap length 0:00:01.08
Peak level 100.0 %
Track quality 100.0 %
Test CRC C644B934
Copy CRC C644B934
Copy OK
Track 12
Filename E:\12 - Here's That Rainy Day (with Rosa Passos).wav
Peak level 94.0 %
Track quality 99.9 %
Test CRC EE0CABC9
Copy CRC EE0CABC9
Copy OK
Track 13
Filename E:\13 - Smile (with Steven Tyler).wav
Pre-gap length 0:00:00.30
Peak level 83.0 %
Track quality 100.0 %
Test CRC 4669AC2A
Copy CRC 4669AC2A
Copy OK
No errors occured
End of status report
Скачивание доступно после регистрации!!
Приватный:
Нет (DHT включён)
Размер:
328.77 Мб (344,744,227 байт) » файлов: 24
Участники:
0 раздают, 0 качают (0 участников всего)
Внешние участники:
14 раздают, 5 качают (19 участников всего) [ Обновить ]
10:42
4
Нет комментариев. Ваш будет первым!