Поиск

(Smooth Jazz) Shilts - HeadBoppin (2006) - 2006, FLAC (.log + .cue + covers), lossless

(Smooth Jazz) Shilts - HeadBoppin (2006) - 2006, FLAC (.log + .cue + covers), lossless
Треклист:
Shilts - HeadBoppin (2006)
Страна: England
Жанр: Smooth Jazz
Год выпуска: 2006
Формат: FLAC (.cue + .log + covers)
Битрейт аудио: lossless
Продолжительность: 46:31
Трэклист:
1. Look What's Happened (4:34)
2. I Knew You'd Like This (4:48)
3. Break the Mold (3:46)
4. Good Evans (6:29)
5. Got Love (3:33)
6. HeadBoppin (5:09)
7. Say Something (4:08)
8. Tuesday Heartbreak (4:20)
9. Two Pesos for Bud (5:11)
10. Mrs. Magic (4:27)
Доп. информация:
Paul "Shilts" Weimar : tenor sax, alto sax (2), programming (1-6, 8-9), keyboards (1-9);
Rick Braun: trumpet (1, 3-4, 8, 10), flugelhorn (1, 8), vocals (9);
Jeff Leach: acoustic piano, Fender Rhodes (1);
Ross Bolton: guitar (1-8, 10);
Ricky Lawson: drums (1-5, 7-8, 10);
Lenny Castro: percussion (1-2, 4, 6-7, 9-10), hi-hats (6), tambourine (8);
Bill Steinway: keyboards (2, 7-8), Fender Rhodes (7, 9-10), acoustic piano (9);
Freddie Washington: bass (2-10);
Ricky Peterson: Hammond B-3 (3, 10);
Jeff Lorber: piano (4);
Siedah Garrett: vocals (5);
Simon Carter: Fender Rhodes (6);
Christ Standring: solo guitar (8);
Nick Lane: trombone (8, 10);
John Pondel: electric and acoustic guitars (9)
http://www.shiltsmusic.com/
 
Отчёт EAC
EAC extraction logfile from 11. May 2007, 12:46 for CD
Shilts / HeadBoppin
Used drive : _NEC DVD_RW ND-3500AG Adapter: 1 ID: 1
Read mode : Secure with NO C2, accurate stream, disable cache
Read offset correction : 48
Overread into Lead-In and Lead-Out : No
Used output format : C:\Program\FLAC\flac.exe (User Defined Encoder)
192 kBit/s
Additional command line options : -V -8 -T "artist=%a" -T "title=%t" -T "album=%g" -T "date=%y" -T "tracknumber=%n" -T "genre=%m" %s
Other options :
Fill up missing offset samples with silence : Yes
Delete leading and trailing silent blocks : No
Installed external ASPI interface
Track 1
Filename I:\Finished downloads\Shilts - HeadBoppin (2006) [FLAC]\01 - Look What's Happened.wav
Pre-gap length 0:00:02.00
Peak level 98.8 %
Track quality 100.0 %
Test CRC C289B167
Copy CRC C289B167
Copy OK
Track 2
Filename I:\Finished downloads\Shilts - HeadBoppin (2006) [FLAC]\02 - I Knew You'd Like This.wav
Peak level 98.8 %
Track quality 100.0 %
Test CRC F065739B
Copy CRC F065739B
Copy OK
Track 3
Filename I:\Finished downloads\Shilts - HeadBoppin (2006) [FLAC]\03 - Break The Mold.wav
Peak level 98.8 %
Track quality 99.9 %
Test CRC 9C2604BA
Copy CRC 9C2604BA
Copy OK
Track 4
Filename I:\Finished downloads\Shilts - HeadBoppin (2006) [FLAC]\04 - Good Evans.wav
Peak level 98.8 %
Track quality 100.0 %
Test CRC 4097DB9D
Copy CRC 4097DB9D
Copy OK
Track 5
Filename I:\Finished downloads\Shilts - HeadBoppin (2006) [FLAC]\05 - Got Love.wav
Peak level 98.8 %
Track quality 100.0 %
Test CRC EEC4D96B
Copy CRC EEC4D96B
Copy OK
Track 6
Filename I:\Finished downloads\Shilts - HeadBoppin (2006) [FLAC]\06 - HeadBoppin.wav
Peak level 98.8 %
Track quality 100.0 %
Test CRC 3262D209
Copy CRC 3262D209
Copy OK
Track 7
Filename I:\Finished downloads\Shilts - HeadBoppin (2006) [FLAC]\07 - Say Something.wav
Peak level 98.8 %
Track quality 100.0 %
Test CRC B4BF3CE9
Copy CRC B4BF3CE9
Copy OK
Track 8
Filename I:\Finished downloads\Shilts - HeadBoppin (2006) [FLAC]\08 - Tuesday Heartbreak.wav
Peak level 98.8 %
Track quality 100.0 %
Test CRC 5EA3CEB1
Copy CRC 5EA3CEB1
Copy OK
Track 9
Filename I:\Finished downloads\Shilts - HeadBoppin (2006) [FLAC]\09 - 2 Pesos For Bud.wav
Peak level 98.8 %
Track quality 99.9 %
Test CRC A75003B1
Copy CRC A75003B1
Copy OK
Track 10
Filename I:\Finished downloads\Shilts - HeadBoppin (2006) [FLAC]\10 - Mrs. Magic.wav
Peak level 98.8 %
Track quality 99.9 %
Test CRC 2F77DFD6
Copy CRC 2F77DFD6
Copy OK
No errors occured
End of status report
 
CUE
REM GENRE Jazz
REM DATE 2006
REM DISCID 830AE60A
REM COMMENT "ExactAudioCopy v0.95b4"
PERFORMER "Shilts"
TITLE "HeadBoppin"
FILE "01 - Look What's Happened.wav" WAVE
TRACK 01 AUDIO
TITLE "Look What's Happened"
PERFORMER "Shilts"
INDEX 01 00:00:00
FILE "02 - I Knew You'd Like This.wav" WAVE
TRACK 02 AUDIO
TITLE "I Knew You'd Like This"
PERFORMER "Shilts"
INDEX 01 00:00:00
FILE "03 - Break The Mold.wav" WAVE
TRACK 03 AUDIO
TITLE "Break The Mold"
PERFORMER "Shilts"
INDEX 01 00:00:00
FILE "04 - Good Evans.wav" WAVE
TRACK 04 AUDIO
TITLE "Good Evans"
PERFORMER "Shilts"
INDEX 01 00:00:00
FILE "05 - Got Love.wav" WAVE
TRACK 05 AUDIO
TITLE "Got Love"
PERFORMER "Shilts"
INDEX 01 00:00:00
FILE "06 - HeadBoppin.wav" WAVE
TRACK 06 AUDIO
TITLE "HeadBoppin"
PERFORMER "Shilts"
INDEX 01 00:00:00
FILE "07 - Say Something.wav" WAVE
TRACK 07 AUDIO
TITLE "Say Something"
PERFORMER "Shilts"
INDEX 01 00:00:00
FILE "08 - Tuesday Heartbreak.wav" WAVE
TRACK 08 AUDIO
TITLE "Tuesday Heartbreak"
PERFORMER "Shilts"
INDEX 01 00:00:00
FILE "09 - 2 Pesos For Bud.wav" WAVE
TRACK 09 AUDIO
TITLE "2 Pesos For Bud"
PERFORMER "Shilts"
INDEX 01 00:00:00
FILE "10 - Mrs. Magic.wav" WAVE
TRACK 10 AUDIO
TITLE "Mrs. Magic"
PERFORMER "Shilts"
INDEX 01 00:00:00
Приватный:
Нет (DHT включён)
Размер:
356.11 Мб (373,408,708 байт) » файлов: 22
Участники:
0 раздают, 0 качают (0 участников всего)
Внешние участники:
5 раздают, 1 качают (6 участников всего) [ Обновить ]
Никого нет на раздаче - пишите личное сообщение M0p94ok
No seeders - write personal message to M0p94ok
10:41
29
Нет комментариев. Ваш будет первым!