Поиск

[TR24][OF] Rahsaan Roland Kirk - Kirkatron - 1977/2011 (Hard Bop, Soul-Jazz)

[TR24][OF] Rahsaan Roland Kirk - Kirkatron - 1977/2011 (Hard Bop, Soul-Jazz)
Треклист:
Rahsaan Roland Kirk - Kirkatron Формат записи/Источник записи: [TR24][OF]
Наличие водяных знаков: Нет
Год издания/переиздания диска: 1977/2011
Жанр: Hard Bop, Soul-Jazz
Издатель (лейбл): Rhino/Warner Bros.
Продолжительность: 45:07
Наличие сканов в содержимом раздачи: Только обложка альбома
Треклист:
01. Serenade To A Cuckoo (3:38)
02. This Masquerade (5:29)
03. Sugar (3:28)
04. Los Angeles Negro Chorus (0:27)
05. Steppin' Into Beauty (6:42)
06. Christmas Song (3:37)
07. Bagpipe Medley (2:18)
08. Mary Mcleod Bethune (0:23)
09. Bright Moments (4:10)
10. Lyriconon (4:11)
11. Night In Tunisia (4:58)
12. J. Griff's Blues (7:44)
Personnel:
Rahsaan Roland Kirk - tenor saxophone, flute, lyricon
Stephen Turre - trombone
Howard Johnson - tuba
Romeo Penque - reeds
Trudy Pitts - organ
Hilton Ruiz, Richard Tee - keyboards
Billy Butler, Cornell Dupree - guitar
Charles "Buster" Williams, Gordon Edwards, Mattathias Pearson, Milton Suggs - bass
Bill Carney, Charles Persip, James Madison, Jerry Griffin, Sonny Brown, Walter Perkins - drums
Todd Barkan, Tony Waters - percussion
Sanford Allen - violin
Alfred Brown, Selwart Clarke - viola
Kermit Moore - cello
 
 
AllMusic Review by Scott Yanow
Shortly after Rahsaan Roland Kirk finished his first album for Warner Brothers, he suffered a major stroke that put him out of action and greatly shortened his life. His second LP for the label was actually comprised of leftovers from the earlier session plus three songs taken from an appearance at the Montreux Jazz Festival; the latter has been reissued on CD in a sampler but the other selections (which include "Serenade to a Cuckoo," his cover of "This Masquerade," "Sugar," "The Christmas Song" and "Bright Moments") remain out of print. This LP (which finds him mostly sticking to tenor), Kirk's next-to-last album, has enough highlights to make it worth searching for.

Контейнер: FLAC (*.flac)
Тип рипа: tracks
Разрядность: 24/192
Формат: PCM
Количество каналов: 2.0
 
Лог проверки качества
foobar2000 1.3.9 / Dynamic Range Meter 1.1.1
log date: 2018-01-16 03:37:39
--------------------------------------------------------------------------------
Analyzed: Rahsaan Roland Kirk / Kirkatron
--------------------------------------------------------------------------------
DR Peak RMS Duration Track
--------------------------------------------------------------------------------
DR11 -1.97 dB -16.09 dB 3:38 01-Serenade To A Cuckoo
DR10 -0.64 dB -13.32 dB 5:29 02-This Masquerade
DR11 0.00 dB -13.93 dB 3:28 03-Sugar
DR7 -6.62 dB -17.13 dB 0:27 04-Los Angeles Negro Chorus
DR11 -1.46 dB -16.89 dB 6:42 05-Steppin' Into Beauty
DR10 -1.55 dB -15.55 dB 3:37 06-Christmas Song
DR11 -0.12 dB -14.77 dB 2:18 07-Bagpipe Medley
DR11 -6.38 dB -19.43 dB 0:23 08-Mary Mcleod Bethune
DR9 -2.14 dB -14.06 dB 4:10 09-Bright Moments
DR11 -4.00 dB -19.37 dB 4:11 10-Lyriconon
DR11 -0.42 dB -13.34 dB 4:58 11-Night In Tunisia
DR11 -0.45 dB -15.09 dB 7:44 12-J. Griff's Blues
--------------------------------------------------------------------------------
Number of tracks: 12
Official DR value: DR11
Samplerate: 192000 Hz
Channels: 2
Bits per sample: 24
Bitrate: 4988 kbps
Codec: FLAC
================================================================================
Источник: hdtracks.com
Приватный:
Нет (DHT включён)
Размер:
1.63 Гб (1,748,481,011 байт) » файлов: 15
Участники:
0 раздают, 0 качают (0 участников всего)
Внешние участники:
3 раздают, 1 качают (4 участников всего) [ Обновить ]
No seeders - write personal message to M0p94ok. Нет сидеров - пишите в личку M0p94ok.
08:14
166
Нет комментариев. Ваш будет первым!