Вы используете незарегистрированную версию компонента "Вкладки"!

Поиск

[TR24][OF] Kali - Riot - 2018 (jazz, modern creative, minimal, groove)

[TR24][OF] Kali - Riot - 2018 (jazz, modern creative, minimal, groove)
Треклист:
Kali / Riot
Формат записи/Источник записи: [TR24][OF]
Год издания диска: 2018
Жанр: jazz, modern creative, minimal, groove
Издатель (лейбл): Ronin Rhythm Records
Продолжительность: 51:04
Контейнер: FLAC (*.flac)
Тип рипа: tracks
Разрядность: 24/96
Количество каналов: 2.0
Источник: WEB
Наличие сканов в содержимом раздачи: Только обложка альбома
Треклист:
01. Trope 09:46
02. Bist du ein Schmetterling? 06:44
03. Riot 15:52
04. Um 03:14
05. Of 06:21
06. 61 06:57
07. Maya 02:06
Released March 20, 2018
Music composed by Kali.
Album produced by Nik Bärtsch & Kali.
Recorded 2017 at Suburban Sound Studio by Manuel Egge.
 
Состав
Raphael Loher: prepared piano
Urs Müller: guitar
Nicolas Stocker: drums
 
Bandcamp's liner notes
Kali represents the fresh and deep spirit of a new post-genre generation of musicians. Nicolas Stocker on drums (also known from Nik Bärtsch’s Mobile and Marena Whicher), Urs Müller on guitar (also known from Sha’s Feckel) and Raphael Loher on prepared piano (also known from Sekhmet) are natives of a contemporary musical world in which prog groove, noise, new minimal, ambient and new classical chamber music are just dialects of a common language. They feel at home in a composed and simultaneously in a free improvised musical context and follow their musical intuition with a wide and non-ideological understanding of music history.
With this background Kali creates beautiful dark pattern spaces, hard minimal grooves and abstract mystical journeys with sound sensibility and progressive power. The band’s creative range varies from epic mystic dramaturgies to minimalistic miniatures of twinkling beauty.
Kali is a genuine working band, which invests time, passion and patience into the idea of being a true musical and social organism with weekly sessions and rehearsals over years. With this consequent band spirit and with their enormous groove know-how, the three Kali members create an evolving new world of sounds and rhythmic interactions. As exemplary pieces for Kali’s musical variety embedded in a characteristic aesthetics are the pieces Riot and Um:
The longest track Riot develops carefully into a wild dramatic groove trip flowing into a rough and empty area of sound and glowing notes, leading into a furious finale.
In Um it seems as if a female Morton Feldman would sing a beautiful-strange song dedicated to Anton Webern.
"A cataclysmic blast of stunning and emotionally cathartic driving energy." + - Londonjazznews.com
 
Лог проверки качества
foobar2000 1.3.17 / Dynamic Range Meter 1.1.1
log date: 2018-04-13 22:13:21
--------------------------------------------------------------------------------
Analyzed: Kali / Riot
--------------------------------------------------------------------------------
DR Peak RMS Duration Track
--------------------------------------------------------------------------------
DR8 -0.08 dB -10.30 dB 9:47 ?-Trope
DR9 -0.08 dB -12.01 dB 6:44 ?-Bist du ein Schmetterling?
DR6 -0.08 dB -10.21 dB 15:53 ?-Riot
DR12 -3.26 dB -22.43 dB 3:15 ?-Um
DR8 -0.08 dB -11.93 dB 6:21 ?-Of
DR8 -0.08 dB -10.61 dB 6:58 ?-61
DR15 -2.06 dB -22.01 dB 2:06 ?-Maya
--------------------------------------------------------------------------------
Number of tracks: 7
Official DR value: DR9
Samplerate: 96000 Hz
Channels: 2
Bits per sample: 24
Bitrate: 2395 kbps
Codec: FLAC
================================================================================
Другие мои раздачи на трекере
Any questions -> support@pro-jazz.com. По всем вопросам пишите -> support@pro-jazz.com
17:02
213
Нет комментариев. Ваш будет первым!