Вы используете незарегистрированную версию компонента "Вкладки"!

Поиск

[TR24][OF] Gregory Privat And Sonny Troupe - Luminescence - 2014/2015 (Post-Bop)

[TR24][OF] Gregory Privat And Sonny Troupe - Luminescence - 2014/2015 (Post-Bop)
Треклист:
Gregory Privat And Sonny Troupe - Luminescence Формат записи/Источник записи: [TR24][OF]
Наличие водяных знаков: Нет
Год издания/переиздания диска: 2014/2015
Жанр: Post-Bop
Издатель (лейбл): jazz family
Продолжительность: 58:54
Наличие сканов в содержимом раздачи: Буклет PDF
Треклист:
01. Luminescence (6:27)
02. On ka avè piano (3:56)
03. Pasaj (3:36)
04. Zéklè (4:38)
05. Ki Tan (4:03)
06. Kong (4:58)
07. Rainy Day (12:52)
08. La chose (5:18)
09. Zendyen (4:08)
10. Improvising In Meudon (8:57)
 
 
Несколько слов на английском
First came the Parisian jam sessions, then the shared bands… All these experiences led to the same conclusion: an exceptional musical understanding. It was only natural that, a few years later, Grégory Privat (from Martinique) and Sonny Troupé (from Guadeloupe) decided to work on an original concept uniting piano and ka drum. The title tells all, two instruments lead the concert: piano and ka, nothing else! A high-speed chase emitting a bright light. A wordless exchange/interchange. The languages of ka and piano intertwine, impossible to tell which one is following the other, both responding to the other, the sonorities of jazz and gwo ka (traditional percussion from Guadeloupe) interlocking.

Контейнер: FLAC (*.flac)
Тип рипа: tracks
Разрядность: 24/88.2
Формат: PCM
Количество каналов: 2.0
 
Лог проверки качества
foobar2000 1.3.9 / Dynamic Range Meter 1.1.1
log date: 2018-04-13 11:49:33
--------------------------------------------------------------------------------
Analyzed: Grégory Privat And Sonny Troupé / Luminescence
--------------------------------------------------------------------------------
DR Peak RMS Duration Track
--------------------------------------------------------------------------------
DR8 0.00 dB -12.51 dB 6:27 01-Luminescence
DR10 0.00 dB -12.24 dB 3:56 02-On ka avè piano
DR11 0.00 dB -14.39 dB 3:36 03-Pasaj
DR8 0.00 dB -9.98 dB 4:38 04-Zéklè
DR9 0.00 dB -13.35 dB 4:03 05-Ki Tan
DR9 0.00 dB -11.41 dB 4:58 06-Kong
DR7 0.00 dB -11.28 dB 12:52 07-Rainy Day
DR9 0.00 dB -12.16 dB 5:18 08-La chose
DR7 0.00 dB -9.45 dB 4:08 09-Zendyen
DR8 0.00 dB -12.68 dB 8:57 10-Improvising In Meudon
--------------------------------------------------------------------------------
Number of tracks: 10
Official DR value: DR9
Samplerate: 88200 Hz
Channels: 2
Bits per sample: 24
Bitrate: 2442 kbps
Codec: FLAC
================================================================================
Источник: qobuz.com
Any questions - support@pro-jazz.com. Есть вопросы - support@pro-jazz.com
17:02
332
Нет комментариев. Ваш будет первым!