Поиск

(Tango Nuevo, World Fusion) [CD] Lalo Zanelli & Ombu - Inmigrantes - 2016, FLAC (tracks+.cue), lossless

(Tango Nuevo, World Fusion) [CD] Lalo Zanelli & Ombu - Inmigrantes - 2016, FLAC (tracks+.cue), lossless
Треклист:
Lalo Zanelli & Ombu - Inmigrantes Жанр: Tango Nuevo, World Fusion
Носитель: CD
Страна-производитель диска (релиза): France
Год издания: 2016
Издатель (лейбл): Buda Musique
Номер по каталогу: 860293
Аудиокодек: FLAC (*.flac)
Тип рипа: tracks+.cue
Битрейт аудио: lossless
Продолжительность: 50:09
Rip by dtromp
Наличие сканов в содержимом раздачи: да
Треклист:
01. Inmigrantes (5:40)
02. Vamos (4:57)
03. Huija (4:43)
04. Tres Rosas (4:13)
05. Reflets (8:22)
06. Lo Que Sea (5:59)
07. Papillon (4:42)
08. El Brujo (5:18)
09. Angelino (6:15)
Personnel:
Bruno Bongarçon - el-g
Pablo Gignoli - acc (1, 3, 6)
Lysandre Donoso - acc (2, 5, 7)
Fabrizio Fenoglietto - b
Javier Estrella - d
Lalo Zanelli - p
Guests:
Minino Garay - d (9)
Leandro Guffanti - ts (2, 6)
Catia Wernec - vo (4)
Eddy Tomassi - perc (1)
Julie Gros - clo (4)
Rec.: Studio El Gaucho, December 2015.
 
 
Лог создания рипа
Exact Audio Copy V1.3 from 2. September 2016
EAC extraction logfile from 24. October 2016, 19:19
Lalo Zanelli & Ombu / Inmigrantes
Used drive : ATAPI iHBS112 2 Adapter: 1 ID: 1
Read mode : Secure
Utilize accurate stream : Yes
Defeat audio cache : Yes
Make use of C2 pointers : No
Read offset correction : 6
Overread into Lead-In and Lead-Out : No
Fill up missing offset samples with silence : Yes
Delete leading and trailing silent blocks : No
Null samples used in CRC calculations : Yes
Used interface : Native Win32 interface for Win NT & 2000
Gap handling : Appended to previous track
Used output format : User Defined Encoder
Selected bitrate : 128 kBit/s
Quality : High
Add ID3 tag : No
Command line compressor : C:\Program Files (x86)\Exact Audio Copy\Flac\flac.exe
Additional command line options : -8 -V -T "ARTIST=%artist%" -T "TITLE=%title%" -T "ALBUM=%albumtitle%" -T "DATE=%year%" -T "TRACKNUMBER=%tracknr%" -T "GENRE=%genre%" -T "PERFORMER=%albuminterpret%" -T "COMPOSER=%composer%" -T "ALBUMARTIST=%albumartist%" -T "DISCNUMBER=%cdnumber%" -T "TOTALDISCS=%totalcds%" -T "TOTALTRACKS=%numtracks%" -T "COMMENT=EAC Secure Mode, Test & Copy, AccurateRip, FLAC -8" %source% -o %dest%
TOC of the extracted CD
Track | Start | Length | Start sector | End sector
---------------------------------------------------------
1 | 0:00.00 | 5:39.62 | 0 | 25486
2 | 5:39.62 | 4:57.27 | 25487 | 47788
3 | 10:37.14 | 4:42.72 | 47789 | 69010
4 | 15:20.11 | 4:13.20 | 69011 | 88005
5 | 19:33.31 | 8:22.16 | 88006 | 125671
6 | 27:55.47 | 5:58.48 | 125672 | 152569
7 | 33:54.20 | 4:41.51 | 152570 | 173695
8 | 38:35.71 | 5:17.54 | 173696 | 197524
9 | 43:53.50 | 6:14.68 | 197525 | 225642
Track 1
Filename D:\DL\Lalo Zanelli & Ombu - Inmigrantes (2016) [FLAC]\01 - Inmigrantes.wav
Pre-gap length 0:00:02.00
Peak level 98.9 %
Extraction speed 5.3 X
Track quality 100.0 %
Test CRC 539B5C6D
Copy CRC 539B5C6D
Track not present in AccurateRip database
Copy OK
Track 2
Filename D:\DL\Lalo Zanelli & Ombu - Inmigrantes (2016) [FLAC]\02 - Vamos.wav
Peak level 98.9 %
Extraction speed 6.0 X
Track quality 100.0 %
Test CRC 3B8D8619
Copy CRC 3B8D8619
Track not present in AccurateRip database
Copy OK
Track 3
Filename D:\DL\Lalo Zanelli & Ombu - Inmigrantes (2016) [FLAC]\03 - Huija.wav
Peak level 98.9 %
Extraction speed 6.5 X
Track quality 100.0 %
Test CRC 31C18918
Copy CRC 31C18918
Track not present in AccurateRip database
Copy OK
Track 4
Filename D:\DL\Lalo Zanelli & Ombu - Inmigrantes (2016) [FLAC]\04 - Tres Rosas.wav
Peak level 98.9 %
Extraction speed 5.8 X
Track quality 99.9 %
Test CRC A2777858
Copy CRC A2777858
Track not present in AccurateRip database
Copy OK
Track 5
Filename D:\DL\Lalo Zanelli & Ombu - Inmigrantes (2016) [FLAC]\05 - Reflets.wav
Peak level 98.9 %
Extraction speed 8.0 X
Track quality 100.0 %
Test CRC 7F7B496B
Copy CRC 7F7B496B
Track not present in AccurateRip database
Copy OK
Track 6
Filename D:\DL\Lalo Zanelli & Ombu - Inmigrantes (2016) [FLAC]\06 - Lo Que Sea.wav
Peak level 98.9 %
Extraction speed 8.4 X
Track quality 100.0 %
Test CRC 107AC8F4
Copy CRC 107AC8F4
Track not present in AccurateRip database
Copy OK
Track 7
Filename D:\DL\Lalo Zanelli & Ombu - Inmigrantes (2016) [FLAC]\07 - Papillon.wav
Peak level 98.9 %
Extraction speed 8.6 X
Track quality 100.0 %
Test CRC C0493273
Copy CRC C0493273
Track not present in AccurateRip database
Copy OK
Track 8
Filename D:\DL\Lalo Zanelli & Ombu - Inmigrantes (2016) [FLAC]\08 - El Brujo.wav
Peak level 98.9 %
Extraction speed 7.9 X
Track quality 99.9 %
Test CRC B897E980
Copy CRC B897E980
Track not present in AccurateRip database
Copy OK
Track 9
Filename D:\DL\Lalo Zanelli & Ombu - Inmigrantes (2016) [FLAC]\09 - Angelino.wav
Peak level 98.9 %
Extraction speed 9.7 X
Track quality 100.0 %
Test CRC 7598B5EB
Copy CRC 7598B5EB
Track not present in AccurateRip database
Copy OK
None of the tracks are present in the AccurateRip database
No errors occurred
End of status report
---- CUETools DB Plugin V2.1.6
[CTDB TOCID: ZUxPV7WOhZVxvgwL6j22UYd3hoQ-] found
Submit result: already submitted
Track | CTDB Status
1 | (2/2) Accurately ripped
2 | (2/2) Accurately ripped
3 | (2/2) Accurately ripped
4 | (2/2) Accurately ripped
5 | (2/2) Accurately ripped
6 | (2/2) Accurately ripped
7 | (2/2) Accurately ripped
8 | (2/2) Accurately ripped
9 | (2/2) Accurately ripped
==== Log checksum 84AFED5C1A09FC9CE4D63B33A572791A141E33BE9DFFCBCEA9465B38A9BC1A4A ====
 
Содержание индексной карты (.CUE)
REM GENRE Jazz
REM DATE 2016
REM DISCID 740BC009
REM COMMENT "ExactAudioCopy v1.3"
PERFORMER "Lalo Zanelli & Ombu"
TITLE "Inmigrantes"
REM COMPOSER "Lalo Zanelli"
FILE "01 - Inmigrantes.wav" WAVE
TRACK 01 AUDIO
TITLE "Inmigrantes"
PERFORMER "Lalo Zanelli & Ombu"
REM COMPOSER "Lalo Zanelli"
INDEX 01 00:00:00
FILE "02 - Vamos.wav" WAVE
TRACK 02 AUDIO
TITLE "Vamos"
PERFORMER "Lalo Zanelli & Ombu"
REM COMPOSER "Lalo Zanelli"
INDEX 01 00:00:00
FILE "03 - Huija.wav" WAVE
TRACK 03 AUDIO
TITLE "Huija"
PERFORMER "Lalo Zanelli & Ombu"
REM COMPOSER "Lalo Zanelli"
INDEX 01 00:00:00
FILE "04 - Tres Rosas.wav" WAVE
TRACK 04 AUDIO
TITLE "Tres Rosas"
PERFORMER "Lalo Zanelli & Ombu"
REM COMPOSER "Lalo Zanelli"
INDEX 01 00:00:00
FILE "05 - Reflets.wav" WAVE
TRACK 05 AUDIO
TITLE "Reflets"
PERFORMER "Lalo Zanelli & Ombu"
REM COMPOSER "Lalo Zanelli"
INDEX 01 00:00:00
FILE "06 - Lo Que Sea.wav" WAVE
TRACK 06 AUDIO
TITLE "Lo Que Sea"
PERFORMER "Lalo Zanelli & Ombu"
REM COMPOSER "Lalo Zanelli"
INDEX 01 00:00:00
FILE "07 - Papillon.wav" WAVE
TRACK 07 AUDIO
TITLE "Papillon"
PERFORMER "Lalo Zanelli & Ombu"
REM COMPOSER "Lalo Zanelli"
INDEX 01 00:00:00
FILE "08 - El Brujo.wav" WAVE
TRACK 08 AUDIO
TITLE "El Brujo"
PERFORMER "Lalo Zanelli & Ombu"
REM COMPOSER "Lalo Zanelli"
INDEX 01 00:00:00
FILE "09 - Angelino.wav" WAVE
TRACK 09 AUDIO
TITLE "Angelino"
PERFORMER "Lalo Zanelli & Ombu"
REM COMPOSER "Lalo Zanelli"
INDEX 01 00:00:00
 
Об альбоме (сборнике)
Ombu was created as, and remains, an outlet for pianist Lalo Zanelli's musical compositions. Inmigrantes, Ombu's latest release, is pitched in the image of Zanelli's French-Argentine heritage as a merger of tango and jazz. More accurately, it's a five piece ensemble (give or take one or two depending on the song) anchored by the piano and bandoneon that uses the idea of jazz (mostly) and tango (less so) as a queue to push beyond the boundaries of either genre. The band seems to take great pride in their brand of professional experimentation, but with mixed results. Some of the very twists and turns likely to catch the ear of previously initiated, jazz-savvy Ombu fans may initially go over the heads of the unacquainted.
The more memorable songs accomplish more with less. “Inmigrantes” stands out not only because it's more distinct, cohesive, and steady than most other songs on the album. It also blends and sways like one would expect of Zenlli's self-described journey through “rock, jazz, Latin music, tango, and Argentine folklore,” at least as much a timeless mood in its own right as it is a derivative of any genre. “Tres Rosas,” a much softer, slower, and simpler tune, maintains the same sort of non-manufactured, unified consistency, with a soul that's easy to grasp and hard to forget.
In other songs, bright gems get lost in murky waters. “Vamos” begins with an optimistic, marching piano. 15 seconds in, a rambling avant-garde saxophone- bandoneon duet turns an easy listen into a chore. The song doesn't come into its own until the clutter is ditched for a cooler, more unified ragtime-bop cum bass solo.
“Lo Que Sea” starts as what sounds like an alternate theme song for a 1980's whodunit TV series, only finding distinction when it strays off course, building around recurring guitar solos whose “too cool to be this right” mood should have made for the song's heart. Of the five remaining songs on the album “Papillon” and “Huija” are the most universally palatable. Both keep things afloat by avoiding the temptation to do too much. “Papillon” in particular balances baring soul through song while still managing to serve the masses.
Judging this work as good or bad partly seems beside the point. Even within the confines of jazz and tango, it's an album more about artistic ambition than mass consumption. If you find yourself as drawn to Inmigrantes for its intentions as you do turned off by its peculiarities, give a listen to Memoria Colectiva, the group's 2011 release. It has all the flair of their latest album, but fewer of the complicated diversions. When you come back you'll have a greater appreciation for what Inmigrantes has to offer.~~ Nokware Knight
22:16
306
Нет комментариев. Ваш будет первым!