Поиск

(Bossa Nova, Brazilian, Vocal Jazz, MPB) [CD] Maria Bethania - Alibi (1978) - 1988, FLAC (tracks+.cue), lossless

(Bossa Nova, Brazilian, Vocal Jazz, MPB) [CD] Maria Bethania - Alibi (1978) - 1988, FLAC (tracks+.cue), lossless
Треклист:
Maria Bethânia - Álibi (1978) Жанр: Bossa Nova, Brazilian, Vocal Jazz, MPB
Носитель: CD
Страна-производитель диска (релиза): Brazil
Год издания: 1988
Издатель (лейбл): Polygram
Номер по каталогу: 836 011-2
Аудиокодек: FLAC (*.flac)
Тип рипа: tracks+.cue
Битрейт аудио: lossless
Продолжительность: 30:55
Источник (релизер): What.cd (robman62)
Наличие сканов в содержимом раздачи: да
Треклист:
01. Diamante Verdadeiro (2:05)
02. Álibi (3:37)
03. O Meu Amor (participação de Alcione) (3:20)
04. A Voz De Uma Pessoa Vitoriosa (2:45)
05. Ronda (2:06)
06. Explode Coração (2:07)
07. Negue (3:58)
08. Sonho Meu (participação de Gal Costa) (3:03)
09. De Todas As Maneiras (1:54)
10. Cálice (3:20)
11. Interior (2:39)
Personnel:
Tomás Improta - p
Rosinha de Valença, Perinho Albuquerque - g
Moacyr Albuquerque, Jamil Joanes, Luizâo - el-b
Eneas Costa, Tuty Moreno, Paulinho Braga - d
Mauro Senise - fl
Perna Fróes - p
Ed Maciel - tb
Mauricio Einhorn - hmca
Djalma Corrêa, Tuty Moreno Cavaquinho - perc
 
 
Лог создания рипа
Exact Audio Copy V1.1 from 23. June 2015
EAC extraction logfile from 23. October 2016, 21:39
Maria Bethânia / Álibi
Used drive : PBDS CD-ROM DH-48N1S Adapter: 1 ID: 0
Read mode : Secure
Utilize accurate stream : Yes
Defeat audio cache : Yes
Make use of C2 pointers : No
Read offset correction : 6
Overread into Lead-In and Lead-Out : No
Fill up missing offset samples with silence : Yes
Delete leading and trailing silent blocks : No
Null samples used in CRC calculations : Yes
Used interface : Native Win32 interface for Win NT & 2000
Gap handling : Appended to previous track
Used output format : User Defined Encoder
Selected bitrate : 768 kBit/s
Quality : High
Add ID3 tag : No
Command line compressor : C:\Program Files (x86)\Exact Audio Copy\FLAC\FLAC.EXE
Additional command line options : -8 -V -T "ARTIST=%artist%" -T "TITLE=%title%" -T "ALBUM=%albumtitle%" -T "DATE=%year%" -T "TRACKNUMBER=%tracknr%" -T "GENRE=%genre%" -T "PERFORMER=%albuminterpret%" -T "COMPOSER=%composer%" %haslyrics%--tag-from-file=LYRICS="%lyricsfile%"%haslyrics% -T "ALBUMARTIST=%albumartist%" -T "DISCNUMBER=%cdnumber%" -T "TOTALDISCS=%totalcds%" -T "TOTALTRACKS=%numtracks%" -T "COMMENT=%comment%" %source% -o %dest%
TOC of the extracted CD
Track | Start | Length | Start sector | End sector
---------------------------------------------------------
1 | 0:00.00 | 2:05.00 | 0 | 9374
2 | 2:05.00 | 3:36.55 | 9375 | 25629
3 | 5:41.55 | 3:20.20 | 25630 | 40649
4 | 9:02.00 | 2:44.67 | 40650 | 53016
5 | 11:46.67 | 2:06.05 | 53017 | 62471
6 | 13:52.72 | 2:07.00 | 62472 | 71996
7 | 15:59.72 | 3:58.13 | 71997 | 89859
8 | 19:58.10 | 3:03.20 | 89860 | 103604
9 | 23:01.30 | 1:54.12 | 103605 | 112166
10 | 24:55.42 | 3:20.15 | 112167 | 127181
11 | 28:15.57 | 2:38.60 | 127182 | 139091
Track 1
Filename C:\EACRips\01 - Diamante Verdadeiro.wav
Pre-gap length 0:00:02.00
Peak level 56.1 %
Extraction speed 3.6 X
Track quality 100.0 %
Test CRC F9BA742B
Copy CRC F9BA742B
Accurately ripped (confidence 1) [FEFCDD7F] (AR v1)
Copy OK
Track 2
Filename C:\EACRips\02 - Álibi.wav
Pre-gap length 0:00:01.33
Peak level 65.0 %
Extraction speed 4.3 X
Track quality 100.0 %
Test CRC 05FE17D5
Copy CRC 05FE17D5
Accurately ripped (confidence 1) [696E8317] (AR v1)
Copy OK
Track 3
Filename C:\EACRips\03 - O Meu Amor (participação de Alcione).wav
Pre-gap length 0:00:00.89
Peak level 100.0 %
Extraction speed 4.7 X
Track quality 100.0 %
Test CRC 85E27992
Copy CRC 85E27992
Accurately ripped (confidence 1) [8F910743] (AR v1)
Copy OK
Track 4
Filename C:\EACRips\04 - A Voz De Uma Pessoa Vitoriosa.wav
Pre-gap length 0:00:00.56
Peak level 76.3 %
Extraction speed 4.7 X
Track quality 100.0 %
Test CRC 30762789
Copy CRC 30762789
Accurately ripped (confidence 1) [26FA44B0] (AR v1)
Copy OK
Track 5
Filename C:\EACRips\05 - Ronda.wav
Pre-gap length 0:00:00.56
Peak level 68.3 %
Extraction speed 4.7 X
Track quality 100.0 %
Test CRC 9B05EB9E
Copy CRC 9B05EB9E
Accurately ripped (confidence 1) [788AA999] (AR v1)
Copy OK
Track 6
Filename C:\EACRips\06 - Explode Coração.wav
Pre-gap length 0:00:01.58
Peak level 41.6 %
Extraction speed 4.9 X
Track quality 100.0 %
Test CRC 8D3F8FDE
Copy CRC 8D3F8FDE
Accurately ripped (confidence 1) [C2C7DC04] (AR v1)
Copy OK
Track 7
Filename C:\EACRips\07 - Negue.wav
Pre-gap length 0:00:00.58
Peak level 69.5 %
Extraction speed 5.8 X
Track quality 100.0 %
Test CRC 2A1481DC
Copy CRC 2A1481DC
Accurately ripped (confidence 1) [BA157CA6] (AR v1)
Copy OK
Track 8
Filename C:\EACRips\08 - Sonho Meu (participação de Gal Costa).wav
Pre-gap length 0:00:00.56
Peak level 60.6 %
Extraction speed 3.8 X
Track quality 99.9 %
Test CRC B3E03EE3
Copy CRC B3E03EE3
Accurately ripped (confidence 1) [3E780BD2] (AR v1)
Copy OK
Track 9
Filename C:\EACRips\09 - De Todas As Maneiras.wav
Pre-gap length 0:00:00.02
Peak level 72.6 %
Extraction speed 3.2 X
Track quality 99.9 %
Test CRC 412AB8CA
Copy CRC 412AB8CA
Accurately ripped (confidence 1) [B45B67A8] (AR v1)
Copy OK
Track 10
Filename C:\EACRips\10 - Cálice.wav
Pre-gap length 0:00:00.69
Peak level 56.0 %
Extraction speed 4.1 X
Track quality 99.9 %
Test CRC 49B66B8E
Copy CRC 49B66B8E
Accurately ripped (confidence 1) [D6A87F29] (AR v1)
Copy OK
Track 11
Filename C:\EACRips\11 - Interior.wav
Pre-gap length 0:00:00.65
Peak level 35.5 %
Extraction speed 5.2 X
Track quality 100.0 %
Test CRC C397BFE8
Copy CRC C397BFE8
Accurately ripped (confidence 1) [083DB259] (AR v1)
Copy OK
All tracks accurately ripped
No errors occurred
End of status report
---- CUETools DB Plugin V2.1.6
[CTDB TOCID: gBOw_t8EhHVE9Yw.nm7qmCQ2raQ-] found
Submit result: gBOw_t8EhHVE9Yw.nm7qmCQ2raQ- has been confirmed
Track | CTDB Status
1 | (2/2) Accurately ripped
2 | (2/2) Accurately ripped
3 | (2/2) Accurately ripped
4 | (2/2) Accurately ripped
5 | (2/2) Accurately ripped
6 | (2/2) Accurately ripped
7 | (2/2) Accurately ripped
8 | (2/2) Accurately ripped
9 | (2/2) Accurately ripped
10 | (2/2) Accurately ripped
11 | (2/2) Accurately ripped
==== Log checksum 1484730A2DF95DC5F957C5F53507F0AFC1EF6384AE37989563E7BDF5B38EC957 ====
 
Содержание индексной карты (.CUE)
REM GENRE Vocal
REM DATE 1978
REM DISCID 8F073E0B
REM COMMENT "ExactAudioCopy v1.1"
CATALOG 0000000000000
PERFORMER "Maria Bethânia"
TITLE "Álibi"
FILE "01 - Diamante Verdadeiro.wav" WAVE
TRACK 01 AUDIO
TITLE "Diamante Verdadeiro"
PERFORMER "Maria Bethânia"
FLAGS PRE
INDEX 01 00:00:00
TRACK 02 AUDIO
TITLE "Álibi"
PERFORMER "Maria Bethânia"
FLAGS PRE
INDEX 00 02:03:50
FILE "02 - Álibi.wav" WAVE
INDEX 01 00:00:00
TRACK 03 AUDIO
TITLE "O Meu Amor (participação de Alcione)"
PERFORMER "Maria Bethânia"
FLAGS PRE
INDEX 00 03:35:63
FILE "03 - O Meu Amor (participação de Alcione).wav" WAVE
INDEX 01 00:00:00
TRACK 04 AUDIO
TITLE "A Voz De Uma Pessoa Vitoriosa"
PERFORMER "Maria Bethânia"
FLAGS PRE
INDEX 00 03:19:53
FILE "04 - A Voz De Uma Pessoa Vitoriosa.wav" WAVE
INDEX 01 00:00:00
TRACK 05 AUDIO
TITLE "Ronda"
PERFORMER "Maria Bethânia"
FLAGS PRE
INDEX 00 02:44:25
FILE "05 - Ronda.wav" WAVE
INDEX 01 00:00:00
TRACK 06 AUDIO
TITLE "Explode Coração"
PERFORMER "Maria Bethânia"
FLAGS PRE
INDEX 00 02:04:36
FILE "06 - Explode Coração.wav" WAVE
INDEX 01 00:00:00
TRACK 07 AUDIO
TITLE "Negue"
PERFORMER "Maria Bethânia"
FLAGS PRE
INDEX 00 02:06:31
FILE "07 - Negue.wav" WAVE
INDEX 01 00:00:00
TRACK 08 AUDIO
TITLE "Sonho Meu (participação de Gal Costa)"
PERFORMER "Maria Bethânia"
FLAGS PRE
INDEX 00 03:57:46
FILE "08 - Sonho Meu (participação de Gal Costa).wav" WAVE
INDEX 01 00:00:00
TRACK 09 AUDIO
TITLE "De Todas As Maneiras"
PERFORMER "Maria Bethânia"
FLAGS PRE
INDEX 00 03:03:18
FILE "09 - De Todas As Maneiras.wav" WAVE
INDEX 01 00:00:00
TRACK 10 AUDIO
TITLE "Cálice"
PERFORMER "Maria Bethânia"
FLAGS PRE
INDEX 00 01:53:35
FILE "10 - Cálice.wav" WAVE
INDEX 01 00:00:00
TRACK 11 AUDIO
TITLE "Interior"
PERFORMER "Maria Bethânia"
FLAGS PRE
INDEX 00 03:19:41
FILE "11 - Interior.wav" WAVE
INDEX 01 00:00:00
 
CUETools log
[CUETools log; Date: 24.10.2016 23:03:08; Version: 2.0.9]
[CTDB TOCID: gBOw_t8EhHVE9Yw.nm7qmCQ2raQ-] found.
[ CTDBID ] Status
[94e0f99b] (3/3) Accurately ripped
[AccurateRip ID: 000cbde7-006e85e6-8f073e0b] found.
Track [ CRC ] Status
01 [fefcdd7f] (1/1) Accurately ripped
02 [696e8317] (1/1) Accurately ripped
03 [8f910743] (1/1) Accurately ripped
04 [26fa44b0] (1/1) Accurately ripped
05 [788aa999] (1/1) Accurately ripped
06 [c2c7dc04] (1/1) Accurately ripped
07 [ba157ca6] (1/1) Accurately ripped
08 [3e780bd2] (1/1) Accurately ripped
09 [b45b67a8] (1/1) Accurately ripped
10 [d6a87f29] (1/1) Accurately ripped
11 [083db259] (1/1) Accurately ripped
Track Peak [ CRC32 ] [W/O NULL] [ LOG ]
-- 100,0 [3FD96F2F] [F5A3F538]
01 56,1 [F9BA742B] [C32625CF] CRC32
02 65,0 [05FE17D5] [AB2D6114] CRC32
03 100,0 [85E27992] [C5E12012] CRC32
04 76,3 [30762789] [7D995B82] CRC32
05 68,3 [9B05EB9E] [2127B4B8] CRC32
06 41,6 [8D3F8FDE] [F0406D20] CRC32
07 69,5 [2A1481DC] [D05FCE7C] CRC32
08 60,6 [B3E03EE3] [08AEC4FF] CRC32
09 72,6 [412AB8CA] [C72284FF] CRC32
10 56,0 [49B66B8E] [D81B62ED] CRC32
11 35,5 [C397BFE8] [2D29D096] CRC32
 
(Vocal Jazz/Latin Jazz/Bossa Nova) Maria Bethania - Alibi - 1978, APE (image+.cue), lossless
22:17
350
Нет комментариев. Ваш будет первым!