Поиск

(Tango, Latin Jazz) Vayo (Vayo Raimondo) - Tango Universal {Pantaleon Records PAN 1012, USA} - 2010, FLAC (image+.cue) lossless

(Tango, Latin Jazz) Vayo (Vayo Raimondo) - Tango Universal {Pantaleon Records PAN 1012, USA} - 2010, FLAC (image+.cue) lossless
VAYO - Tango Universal
Жанр: Tango, Latin Jazz
Страна-производитель диска: USA
Год издания диска: 2010
Издатель (лейбл): Pantaleon Records
Номер по каталогу: PAN 1012
Аудио кодек: FLAC (*.flac)
Тип рипа: image+.cue
Битрейт аудио: lossless
Продолжительность: 00:38:21
Источник (релизер): собственный рип с оригинального CD (Darkman)
Наличие сканов в содержимом раздачи: да (полный набор сканов, 300 dpi)
Треклист:
01. Arráncame la vida 3:15
02. Por eso te quiero 3:39
03. Milonga sentimental 3:18
04. Speak Low 2:35
05. Quisiera olvidar tus ojos 3:03
06. Golondrinas 3:36
07. Songs My Mother Taught Me 2:00
08. In the Still of the Night 3:00
09. Amapola 3:45
10. Quiéreme Mucho 3:29
11. Siempre en Mi Corazón 3:09
12. Funeral Tango 3:26
http://www.vayoraimondo.com/pages/album-Tango-Universal.php
Personnel:
Vayo Raimondo - vocals
Miguel Pose - double bass (contrabajo)
Julio Cobelli - guitars (guitarras)
Edison Bordón - bandoneón
Roman Raimondo - drums (percusión)
All musical arrangements by Vayo
Production: Vayo Raimondo
Recording: Gastón Ackermann, Bob Stark, Orlando Fernandez
Mixing: Bob Stark
Mastering: Michael Fuller
Art Direction & Photography: Tatiana Raimondo
 
Лог создания рипа (EAC Log)
Exact Audio Copy V0.99 prebeta 5 from 4. May 2009
EAC extraction logfile from 9. June 2011, 15:03
Vayo / Tango Universal
Used drive : HL-DT-STDVD-RAM GSA-H54N Adapter: 0 ID: 0
Read mode : Secure
Utilize accurate stream : Yes
Defeat audio cache : Yes
Make use of C2 pointers : No
Read offset correction : 102
Overread into Lead-In and Lead-Out : No
Fill up missing offset samples with silence : Yes
Delete leading and trailing silent blocks : No
Null samples used in CRC calculations : Yes
Used interface : Native Win32 interface for Win NT & 2000
Used output format : User Defined Encoder
Selected bitrate : 320 kBit/s
Quality : High
Add ID3 tag : No
Command line compressor : C:\Program Files\Exact Audio Copy\Flac\flac.exe
Additional command line options : -8 -V %s
TOC of the extracted CD
Track | Start | Length | Start sector | End sector
---------------------------------------------------------
1 | 0:00.00 | 3:15.52 | 0 | 14676
2 | 3:15.52 | 3:39.12 | 14677 | 31113
3 | 6:54.64 | 3:18.50 | 31114 | 46013
4 | 10:13.39 | 2:35.73 | 46014 | 57711
5 | 12:49.37 | 3:03.06 | 57712 | 71442
6 | 15:52.43 | 3:36.35 | 71443 | 87677
7 | 19:29.03 | 2:00.61 | 87678 | 96738
8 | 21:29.64 | 3:00.57 | 96739 | 110295
9 | 24:30.46 | 3:45.19 | 110296 | 127189
10 | 28:15.65 | 3:29.48 | 127190 | 142912
11 | 31:45.38 | 3:09.67 | 142913 | 157154
12 | 34:55.30 | 3:26.35 | 157155 | 172639
Range status and errors
Selected range
Filename C:\EAC\Vayo - Tango Universal.wav
Peak level 99.7 %
Range quality 99.9 %
Test CRC B273FBF7
Copy CRC B273FBF7
Copy OK
No errors occurred
AccurateRip summary
Track 1 not present in database
Track 2 not present in database
Track 3 not present in database
Track 4 not present in database
Track 5 not present in database
Track 6 not present in database
Track 7 not present in database
Track 8 not present in database
Track 9 not present in database
Track 10 not present in database
Track 11 not present in database
Track 12 not present in database
None of the tracks are present in the AccurateRip database
End of status report
 
Содержание индексной карты (.CUE)
REM GENRE Tango
REM DATE 2010
REM DISCID AA08FD0C
REM COMMENT "ExactAudioCopy v0.99pb5"
PERFORMER "Vayo"
TITLE "Tango Universal"
FILE "Vayo - Tango Universal.flac" WAVE
TRACK 01 AUDIO
TITLE "Arrancame la vida"
PERFORMER "Vayo"
INDEX 01 00:00:00
TRACK 02 AUDIO
TITLE "Por eso te quiero"
PERFORMER "Vayo"
INDEX 00 03:14:09
INDEX 01 03:15:52
TRACK 03 AUDIO
TITLE "Milonga sentimental"
PERFORMER "Vayo"
INDEX 00 06:53:49
INDEX 01 06:54:64
TRACK 04 AUDIO
TITLE "Speak Low"
PERFORMER "Vayo"
INDEX 00 10:11:40
INDEX 01 10:13:39
TRACK 05 AUDIO
TITLE "Quisiera olvidar tus ojos"
PERFORMER "Vayo"
INDEX 00 12:46:57
INDEX 01 12:49:37
TRACK 06 AUDIO
TITLE "Golondrinas"
PERFORMER "Vayo"
INDEX 00 15:51:11
INDEX 01 15:52:43
TRACK 07 AUDIO
TITLE "Songs my mother taught me"
PERFORMER "Vayo"
INDEX 00 19:26:49
INDEX 01 19:29:03
TRACK 08 AUDIO
TITLE "In the still of the night"
PERFORMER "Vayo"
INDEX 00 21:27:19
INDEX 01 21:29:64
TRACK 09 AUDIO
TITLE "Amapola"
PERFORMER "Vayo"
INDEX 00 24:28:16
INDEX 01 24:30:46
TRACK 10 AUDIO
TITLE "Quiereme mucho"
PERFORMER "Vayo"
INDEX 00 28:13:19
INDEX 01 28:15:65
TRACK 11 AUDIO
TITLE "Siempre en mi corazуn"
PERFORMER "Vayo"
INDEX 00 31:43:39
INDEX 01 31:45:38
TRACK 12 AUDIO
TITLE "Funeral tango"
PERFORMER "Vayo"
INDEX 00 34:53:31
INDEX 01 34:55:30
 
Editorial Review @ Amazon
This album is nominated for the 2010 Latin Grammys as Best Tango Album. Vayo also received another Latin Grammy nomination in 2007 in the same category. In this album, Vayo sings, with passion and elegance, his innovative Tango arrangements of classical and popular themes in twelve tracks of compositions by Ernesto Lecuona, Cole Porter, Kurt Weill, Agustin Lara, Isaac Albeniz, Antonin Dvorak, and Jacques Brel.
 
Об альбоме
Vayo sings with passion and elegance his own innovative Tango genre arrangements of classical and popular themes.
-----------
Vayo canta, con pasión y elegancia, sus propios arreglos de temas clásicos y populares en el género Tango.
 
CD Universe
Liner Note Author: Vayo.
Photographer: Tatiana Raimondo.
Arranger: Vayo.
Personnel: Vayo (vocals); Julio Cobelli (guitar); Edison Bordon (bandoneon); Miguel Pose (double bass); Roman Raimondo (drums).
Audio Mixer: Bob Stark.
01. Arrancame La Vida (Tango) (Tear My Life Away)
02. Por Eso Te Quiero (Tango) (This Is Why I Love You)
03. Milonga Sentimental (Milonga)
04. Speak Low (Tango)
05. Quisiera Olvidar Tus Ojos (Tango-Milonga) (I Want To Forget Your Eyes)
06. Golondrinas (Tango) (Swallows)
07. Songs My Mother Taught Me (Milonga)
08. In The Still Of The Night Tango-Milonga Intro
09. Amapola (Milonga)
10. Quiereme Mucho (Yours) Tango-Milonga Intro
11. Siempre En Mi Corazon (Tango) (Always In My Heart)
12. Funeral Tango (Tango)
 
Back
 
CD
22:14
347
Нет комментариев. Ваш будет первым!