Поиск

(Jazz, ethno-fusion) Barak Ben Zour - Wannabi (The Prophet) - 2010, FLAC (tracks+.cue), lossless

(Jazz, ethno-fusion) Barak Ben Zour - Wannabi (The Prophet) - 2010, FLAC (tracks+.cue), lossless
Треклист:
Barak Ben Zour - Wannabi (The Prophet) - 2010
Спасибо Василисе за наводку на этот альбом (ее раздача в мп3)
Жанр: Jazz, ethno-fusion
Страна исполнителя: Israel
Год оригинала: 2010
Страна - производитель диска: Israel
Издатель (лейбл): Magda Music & Barak Ben Zour
Номер по каталогу: MGD074
Тип: Studio
Аудио кодек: FLAC (*.flac)
Тип рипа: (tracks + .cue)
Корректность рипа: EAC ripped, correct read offset, test and copy, accuratelly ripped
Битрейт аудио: lossless
Наличие сканов в содержимом раздачи: full scans, png, 300 dpi
Продолжительность: 51:32
Источник (релизер): Моя коллекция, мой рип
Трэклист:
1. Kiria (Rav Yehuda HaLevi - Traditional; Yemenite folklore)
2. Sar Hamemune (Rav Shalom Shabazi - Traditional; Yemenite folklore)
3. Habib Zecharya (Woman song, Traditional; Yemenite folklore)
4. Shaday (Rav Shalom Shabazi - Lior Greidi, Gili Greidi)
5. Wannabi (Woman song, Traditional; Yemenite folklore)
6. Yuma (Woman song, Traditional; Yemenite folklore)
7. Lecha Eli (Yair Gadasi - Traditional: Yom Kipour Prayer)
8. Yo Shema (Rav Shalom Shabazi - Traditional; Yemenite folklore)
9. Ya Jama'a (Men song, Traditional; Yemenite folklore)
1. Savta Shulamit (Rav Shalom Shabazi - Traditional; Aharon Amram)
Состав:
Drums, Keyboards, Percussion - Barak Ben Zour
Keyboards - Ishay Danoch
Keyboards - Avi Adrian
Bass - Yaron Suriano & Uri Kleinman (2.3)
Oud & Saz - Yaniv Taichman
Percussions - Erez Munk
Programing - Ehud Tamir
Voices - Tze'ela, Igal Mizrahi, Lior Greidi, Gili Greidi
Arrangements & Production - Barak Ben Zour (4,10) by Barak Ben Zour & Refael Greidi (1-3,5-9)
Music Production - Barak Ben Zour
Recorded at Naama Studio
Recording - Ben Spector, Shay Gabriel
Mastering - Shmulik Daniel ,Hook Studio
Production for Magda - Jose Karsenti
Ссылки:
http://www.barak-bz.com
 
Содержание индексной карты (.CUE):
REM GENRE Ethno-Fusion
REM DATE 2010
REM DISCID 760C140A
REM COMMENT "ExactAudioCopy v0.99pb5"
PERFORMER "Barak Ben Zour"
TITLE "Wannabi (The Prophet)"
FILE "01 - Kiria.wav" WAVE
TRACK 01 AUDIO
TITLE "Kiria"
PERFORMER "Barak Ben Zour"
FLAGS DCP
INDEX 01 00:00:00
TRACK 02 AUDIO
TITLE "Sar Hamemune"
PERFORMER "Barak Ben Zour"
FLAGS DCP
INDEX 00 05:06:22
FILE "02 - Sar Hamemune.wav" WAVE
INDEX 01 00:00:00
TRACK 03 AUDIO
TITLE "Habib Zecharya"
PERFORMER "Barak Ben Zour"
FLAGS DCP
INDEX 00 05:10:46
FILE "03 - Habib Zecharya.wav" WAVE
INDEX 01 00:00:00
TRACK 04 AUDIO
TITLE "Shaday"
PERFORMER "Barak Ben Zour"
FLAGS DCP
INDEX 00 05:01:17
FILE "04 - Shaday.wav" WAVE
INDEX 01 00:00:00
TRACK 05 AUDIO
TITLE "Wannabi"
PERFORMER "Barak Ben Zour"
FLAGS DCP
INDEX 00 05:35:01
FILE "05 - Wannabi.wav" WAVE
INDEX 01 00:00:00
TRACK 06 AUDIO
TITLE "Yuma"
PERFORMER "Barak Ben Zour"
FLAGS DCP
INDEX 00 05:15:30
FILE "06 - Yuma.wav" WAVE
INDEX 01 00:00:00
TRACK 07 AUDIO
TITLE "Lecha Eli"
PERFORMER "Barak Ben Zour"
FLAGS DCP
INDEX 00 04:43:29
FILE "07 - Lecha Eli.wav" WAVE
INDEX 01 00:00:00
TRACK 08 AUDIO
TITLE "Yo Shema"
PERFORMER "Barak Ben Zour"
FLAGS DCP
INDEX 00 05:47:31
FILE "08 - Yo Shema.wav" WAVE
INDEX 01 00:00:00
TRACK 09 AUDIO
TITLE "Ya Jama'a"
PERFORMER "Barak Ben Zour"
FLAGS DCP
INDEX 00 04:50:70
FILE "09 - Ya Jama'a.wav" WAVE
INDEX 01 00:00:00
TRACK 10 AUDIO
TITLE "Savta Shulamit"
PERFORMER "Barak Ben Zour"
FLAGS DCP
INDEX 00 05:23:22
FILE "10 - Savta Shulamit.wav" WAVE
INDEX 01 00:00:00
 
Лог создания рипа
Exact Audio Copy V0.99 prebeta 5 from 4. May 2009
EAC extraction logfile from 7. June 2011, 16:42
Barak Ben Zour / Wannabi (The Prophet)
Used drive : HL-DT-STDVD-RAM GH22NP20 Adapter: 0 ID: 0
Read mode : Secure
Utilize accurate stream : Yes
Defeat audio cache : Yes
Make use of C2 pointers : No
Read offset correction : 102
Overread into Lead-In and Lead-Out : No
Fill up missing offset samples with silence : Yes
Delete leading and trailing silent blocks : No
Null samples used in CRC calculations : Yes
Used interface : Native Win32 interface for Win NT & 2000
Gap handling : Appended to previous track
Used output format : User Defined Encoder
Selected bitrate : 1024 kBit/s
Quality : High
Add ID3 tag : No
Command line compressor : C:\Program Files\Exact Audio Copy\Flac\flac.exe
Additional command line options : -8 -V -T "ARTIST=%a" -T "TITLE=%t" -T "ALBUM=%g" -T "DATE=%y" -T "TRACKNUMBER=%n" -T "GENRE=%m" -T "COMMENT=EAC FLAC -8" %s
TOC of the extracted CD
Track | Start | Length | Start sector | End sector
---------------------------------------------------------
1 | 0:00.00 | 5:07.28 | 0 | 23052
2 | 5:07.28 | 5:12.18 | 23053 | 46470
3 | 10:19.46 | 5:03.15 | 46471 | 69210
4 | 15:22.61 | 5:35.51 | 69211 | 94386
5 | 20:58.37 | 5:18.15 | 94387 | 118251
6 | 26:16.52 | 4:43.61 | 118252 | 139537
7 | 31:00.38 | 5:49.33 | 139538 | 165745
8 | 36:49.71 | 4:54.09 | 165746 | 187804
9 | 41:44.05 | 5:25.29 | 187805 | 212208
10 | 47:09.34 | 4:22.42 | 212209 | 231900
Track 1
Filename D:\music\Musicgate's rips\Barak Ben Zour - Wannabi (The Prophet) - 2010\01 - Kiria.wav
Pre-gap length 0:00:02.00
Peak level 98.8 %
Track quality 100.0 %
Test CRC FDC11DE9
Copy CRC FDC11DE9
Track not present in AccurateRip database
Copy OK
Track 2
Filename D:\music\Musicgate's rips\Barak Ben Zour - Wannabi (The Prophet) - 2010\02 - Sar Hamemune.wav
Pre-gap length 0:00:01.06
Peak level 98.8 %
Track quality 100.0 %
Test CRC 69653ECC
Copy CRC 69653ECC
Track not present in AccurateRip database
Copy OK
Track 3
Filename D:\music\Musicgate's rips\Barak Ben Zour - Wannabi (The Prophet) - 2010\03 - Habib Zecharya.wav
Pre-gap length 0:00:01.47
Peak level 98.8 %
Track quality 100.0 %
Test CRC 0382E522
Copy CRC 0382E522
Track not present in AccurateRip database
Copy OK
Track 4
Filename D:\music\Musicgate's rips\Barak Ben Zour - Wannabi (The Prophet) - 2010\04 - Shaday.wav
Pre-gap length 0:00:01.73
Peak level 98.6 %
Track quality 99.9 %
Test CRC 7F6373DB
Copy CRC 7F6373DB
Track not present in AccurateRip database
Copy OK
Track 5
Filename D:\music\Musicgate's rips\Barak Ben Zour - Wannabi (The Prophet) - 2010\05 - Wannabi.wav
Pre-gap length 0:00:00.50
Peak level 98.8 %
Track quality 100.0 %
Test CRC 70B8FC19
Copy CRC 70B8FC19
Track not present in AccurateRip database
Copy OK
Track 6
Filename D:\music\Musicgate's rips\Barak Ben Zour - Wannabi (The Prophet) - 2010\06 - Yuma.wav
Pre-gap length 0:00:02.60
Peak level 98.8 %
Track quality 100.0 %
Test CRC D5F78C6F
Copy CRC D5F78C6F
Track not present in AccurateRip database
Copy OK
Track 7
Filename D:\music\Musicgate's rips\Barak Ben Zour - Wannabi (The Prophet) - 2010\07 - Lecha Eli.wav
Pre-gap length 0:00:00.32
Peak level 98.6 %
Track quality 100.0 %
Test CRC 8ADA4328
Copy CRC 8ADA4328
Track not present in AccurateRip database
Copy OK
Track 8
Filename D:\music\Musicgate's rips\Barak Ben Zour - Wannabi (The Prophet) - 2010\08 - Yo Shema.wav
Pre-gap length 0:00:02.02
Peak level 98.8 %
Track quality 100.0 %
Test CRC 4CDCF44A
Copy CRC 4CDCF44A
Track not present in AccurateRip database
Copy OK
Track 9
Filename D:\music\Musicgate's rips\Barak Ben Zour - Wannabi (The Prophet) - 2010\09 - Ya Jama'a.wav
Pre-gap length 0:00:03.14
Peak level 98.8 %
Track quality 100.0 %
Test CRC 7310F573
Copy CRC 7310F573
Track not present in AccurateRip database
Copy OK
Track 10
Filename D:\music\Musicgate's rips\Barak Ben Zour - Wannabi (The Prophet) - 2010\10 - Savta Shulamit.wav
Pre-gap length 0:00:02.07
Peak level 98.8 %
Track quality 100.0 %
Test CRC 3FC24E56
Copy CRC 3FC24E56
Track not present in AccurateRip database
Copy OK
None of the tracks are present in the AccurateRip database
No errors occurred
End of status report
 
Лог проверки качества
Я не сидирую все свои раздачи подолгу, только новые (до 3х первых сидов)
Если нет сидов или раздача находится в архиве, просите в ПМ, чтобы я вернулся - за старыми раздачами не слежу
приветствуется конвертация моих раздач в мп3 и выкладывание в соответствующем разделе
22:15
321
Нет комментариев. Ваш будет первым!