Поиск

(Tango, Jazz, World) Roberto Di Filippo - Intimo: Solos de Bandoneón - 2001, FLAC (image+.cue), lossless

Треклист:
Roberto Di Filippo - Intimo: Solos de Bandoneón
Жанр: Tango, Jazz, World
Год выпуска диска: 2001
Производитель диска: Argentina
Аудио кодек: FLAC
Тип рипа: image+.cue
Битрейт аудио: lossless
Продолжительность: 42:42
Трэклист:
01. flores negras (instr.)
(roberto di filippo)
02. corazon deoro (instr.)
(roberto di filippo)
03. shusheta (instr.)
(roberto di filippo)
04. golondrinas (instr.)
(roberto di filippo)
05. el buey solo (instr.)
(roberto di filippo)
06. palabras de di filippo (instr.)
(roberto di filippo)
07. pa' que se compren ropa (instr.)
(roberto di filippo)
08. loca bohemia (instr.)
(roberto di filippo)
09. santa milonguita (instr.)
(roberto di filippo)
10. el ciruja (instr.)
(roberto di filippo)
11. czardas (instr.)
(roberto di filippo)
12. palabras de di filippo (instr.)
(roberto di filippo)
13. boedo (instr.)
(roberto di filippo)
14. divina (instr.)
(roberto di filippo)
15. cuando tu no estas (instr.)
(roberto di filippo)
16. rubi (instr.)
(roberto di filippo)
17. viejo madrigal (instr.)
(roberto di filippo)
18. palabras de di filippo (instr.)
(roberto di filippo)
19. (instr.)
(roberto di filippo)
20. recuerdos de bohemia (instr.)
(roberto di filippo)
21. palabras de astor piazzolla (ins
(astor piazzolla)
Доп. информация:
 
Отчет EAC
Exact Audio Copy V0.99 prebeta 4 from 23. January 2008
EAC extraction logfile from 21. April 2009, 16:52
Roberto Di Filippo / Íntimo
Used drive : HL-DT-STDVDRAM GH20NS10 Adapter: 2 ID: 0
Read mode : Secure
Utilize accurate stream : Yes
Defeat audio cache : Yes
Make use of C2 pointers : No
Read offset correction : 667
Overread into Lead-In and Lead-Out : No
Fill up missing offset samples with silence : Yes
Delete leading and trailing silent blocks : No
Null samples used in CRC calculations : Yes
Used interface : Native Win32 interface for Win NT & 2000
Used output format : User Defined Encoder
Selected bitrate : 128 kBit/s
Quality : High
Add ID3 tag : No
Command line compressor : C:\Archivos de programa\Exact Audio Copy\Flac\flac.exe
Additional command line options : -6 -V -T "ARTIST=%a" -T "TITLE=%t" -T "ALBUM=%g" -T "DATE=%y" -T "TRACKNUMBER=%n" -T "GENRE=%m" -T "COMMENT=%e" %s -o %d
TOC of the extracted CD
Track | Start | Length | Start sector | End sector
---------------------------------------------------------
1 | 0:00.00 | 2:19.38 | 0 | 10462
2 | 2:19.38 | 1:58.26 | 10463 | 19338
3 | 4:17.64 | 1:57.65 | 19339 | 28178
4 | 6:15.54 | 2:53.52 | 28179 | 41205
5 | 9:09.31 | 1:38.18 | 41206 | 48573
6 | 10:47.49 | 0:59.62 | 48574 | 53060
7 | 11:47.36 | 1:16.38 | 53061 | 58798
8 | 13:03.74 | 1:16.25 | 58799 | 64523
9 | 14:20.24 | 2:58.52 | 64524 | 77925
10 | 17:19.01 | 2:44.10 | 77926 | 90235
11 | 20:03.11 | 2:29.13 | 90236 | 101423
12 | 22:32.24 | 0:30.08 | 101424 | 103681
13 | 23:02.32 | 3:42.23 | 103682 | 120354
14 | 26:44.55 | 2:47.18 | 120355 | 132897
15 | 29:31.73 | 2:25.21 | 132898 | 143793
16 | 31:57.19 | 2:46.73 | 143794 | 156316
17 | 34:44.17 | 2:00.05 | 156317 | 165321
18 | 36:44.22 | 0:32.04 | 165322 | 167725
19 | 37:16.26 | 2:06.32 | 167726 | 177207
20 | 39:22.58 | 1:50.59 | 177208 | 185516
21 | 41:13.42 | 1:26.56 | 185517 | 192022
Range status and errors
Selected range
Filename G:\Discos Descomprimidos\Roberto Di Filippo - Intimo\Roberto Di Filippo - Intimo.wav
Peak level 98.8 %
Range quality 100.0 %
Test CRC B85FFD4E
Copy CRC B85FFD4E
Copy OK
No errors occurred
AccurateRip summary
Track 1 not present in database
Track 2 not present in database
Track 3 not present in database
Track 4 not present in database
Track 5 not present in database
Track 6 not present in database
Track 7 not present in database
Track 8 not present in database
Track 9 not present in database
Track 10 not present in database
Track 11 not present in database
Track 12 not present in database
Track 13 not present in database
Track 14 not present in database
Track 15 not present in database
Track 16 not present in database
Track 17 not present in database
Track 18 not present in database
Track 19 not present in database
Track 20 not present in database
Track 21 not present in database
None of the tracks are present in the AccurateRip database
End of status report
 
Review in english
Yesterday December 11th, 2001 , an outstanding CD with bandoneon solos from
Roberto Di Filippo was presented
at a ceremony in Teatro Alvear of Buenos Aires.
This solos were recorded by Di Filippo from 1980 to 1983 at his home, and he
used to give the cassettes recordings to his friends , as gifts . The story
of this bandoneonist , later oboe player for 20 years at the Colon Theatre
and other orchestras , is really interesting.
Di Filippo was bandoneonist during the 40´s , with the orchestras of Orlando
Goñi, Astor Piazzolla , Julio De Caro & Horacio Salgan. There was a general
consensus within bandoneonist , that he was the greatest one.
Ten years after his death, a special remastering of his home made recordings
has been made, with the sponsorship of the Town Hall of the City of Buenos
Aires, through their Music Area. (Direccion de Musica).
The ceremony was unforgetable. Great bandoneonists such as Leopoldo
Federico, Julio Pane, Gabriel Clausi,.Julian Plaza, Antonio Principe, Pablo
Mainetti , Horacio Romo and Marcos Madrigal, made solos of bandoneon, one by
one.
And the closing was four bandoneonists from the Orchestra School Tango,
under the direction of Emilio Balcarce also with bandoneon, five bandoneon
in all playing .
There were also special mentions for two luthiers, Fabio Fabbiani and
Ricardo Romualdi, who are the most wanted tuners and fixers of bandoneons.
This ceremony is part of a project called " Bandoneon Program - Buenos Aires
nacre/mother of pearl"
There will be future issues of Cd´s with bandoneon solos, also a sponsorhip
to promote young bandoneon students
to continue with their studies (yesterday three awards were given to young
students, they will continue with bandoneon master & teacher Marcos
Madrigal).And also another sponsorhip to make possible the transmission of
the art of tuning and fixing bandoneons from the old luthiers to young
luthiers.
This is a good new for the bandoneon life . Some of the great bandoneonist
are getting older , and it was very emotive to see them, one by one ,
walking through the stage with slow steps to the chair, and making their
bandoneon solo. They simply seat and the music pour , it was as beautiful as
that.
Warm regards
Alberto Gesualdi
Buenos AireS
This is my release, great Bandoneonist, amazing! may be not good sound, but great!!
I don't speak russian. Forgive me. I have the share spirit. I'm making the best i can in this fantastic forum. Please, leave your comments in english or spanish, so i'll be able to participate.
Я не говорю по-русски. Простите меня. Зато у меня командный дух и я делаю, что могу в этом фантастическом форуме. Пожалуйста, оставляйте свои комментарии на английском или испанском языках, так чтобы я мог принять участие в обсуждении.
06:54
228
Нет комментариев. Ваш будет первым!