Поиск

(Jazz / Jazz Blues / Flamenco / World Fusion) James Cohen - High Side of Lowdown - 2003, APE (image+.cue)

(Jazz / Jazz Blues / Flamenco / World Fusion) James Cohen - High Side of Lowdown - 2003, APE (image+.cue)
Треклист:
James Cohen - High Side of Lowdown
Жанр: Jazz / Jazz Blues / Flamenco / World Fusion
Год выпуска диска: 2003
Аудио кодек: APE
Тип рипа: image+.cue
Битрейт аудио: lossless
Продолжительность: 42:43
Трэклист:
01. James Cohen - Pun Tango [02:45]
02. James Cohen - Santa Anna [03:16]
03. James Cohen - Blue Gypsy [05:32]
04. James Cohen - Mock Pollack [03:00]
05. James Cohen - Elsie [03:45]
06. James Cohen - The Lemming [03:38]
07. James Cohen - La Tormenta [05:09]
08. James Cohen - High Side of Lowdown [04:47]
09. James Cohen - Tiny Monkeys [03:20]
10. James Cohen - Fortune's Fool [04:21]
11. James Cohen - Without You [03:10]
Доп. информация:
 
Отчёт EAC
Exact Audio Copy V0.99 prebeta 4 from 23. January 2008
Отчёт EAC об извлечении, выполненном 21. апреля 2009, 21:41
James Cohen / High Side of Lowdown
Дисковод: TSSTcorpCDDVDW SH-S203B Adapter: 3 ID: 0
Режим чтения : Достоверность
Использование точного потока : Да
Отключение кэша аудио : Да
Использование указателей C2 : Нет
Коррекция смещения при чтении : 6
Способность читать области Lead-in и Lead-out : Нет
Заполнение пропущенных сэмплов тишиной : Да
Удаление блоков с тишиной в начале и конце : Нет
При вычислениях CRC использовались нулевые сэмплы : Да
Интерфейс : Встроенный Win32-интерфейс для Win NT/2000
Выходной формат : Внутренние WAV-операции
Формат сэмплов : 44.100 Гц; 16 бит; стерео
TOC извлечённого CD
Трек | Старт | Длительность | Начальный сектор | Конечный сектор
---------------------------------------------------------------------
1 | 0:00.00 | 2:45.17 | 0 | 12391
2 | 2:45.17 | 3:15.73 | 12392 | 27089
3 | 6:01.15 | 5:31.72 | 27090 | 51986
4 | 11:33.12 | 3:00.00 | 51987 | 65486
5 | 14:33.12 | 3:45.08 | 65487 | 82369
6 | 18:18.20 | 3:38.07 | 82370 | 98726
7 | 21:56.27 | 5:09.08 | 98727 | 121909
8 | 27:05.35 | 4:47.22 | 121910 | 143456
9 | 31:52.57 | 3:20.03 | 143457 | 158459
10 | 35:12.60 | 4:20.52 | 158460 | 178011
11 | 39:33.37 | 3:10.03 | 178012 | 192264
Характеристики диапазона извлечения и сообщения об ошибках
Выбранный диапазон
Имя файла D:\Muzik\Temp\James Cohen\2003 - High Side of Lowdown\James Cohen - High Side of Lowdown.wav
Пиковый уровень 100.0 %
Качество диапазона 99.9 %
CRC копии 2089E736
Копирование... OK
Ошибок не произошло
Конец отчёта
 
Отчёт AUDIOCHECKER
AUDIOCHECKER v2.0 beta (build 457) - by Dester - opdester@freemail.hu
~~~~~~~~~~~~~~~~~~~~~~~~~~~~~~~~~~
Начато: вторник, 21. 04. 2009. - 21:43.00
Найдено файлов: 1
1 -===- трек 1 в приводе TSSTcorpCDDVDW SH-S203B
Ошибка: прервано пользователем
Процесс прерван пользователем!
Завершено: вторник, 21. 04. 2009. - 21:43.20 (Время операции: 0:00.20)
-----------------------------------------------------------
Начато: среда, 22. 04. 2009. - 19:14.17
Найдено файлов: 11
01 -===- трек 1 в приводе TSSTcorpCDDVDW SH-S203B
Трек успешно извлечён
Заключение: этот трек - CDDA с вероятностью 100%
Временный файл удалён.
02 -===- трек 2 в приводе TSSTcorpCDDVDW SH-S203B
Трек успешно извлечён
Заключение: этот трек - CDDA с вероятностью 100%
Временный файл удалён.
03 -===- трек 3 в приводе TSSTcorpCDDVDW SH-S203B
Трек успешно извлечён
Заключение: этот трек - CDDA с вероятностью 100%
Временный файл удалён.
04 -===- трек 4 в приводе TSSTcorpCDDVDW SH-S203B
Трек успешно извлечён
Заключение: этот трек - CDDA с вероятностью 100%
Временный файл удалён.
05 -===- трек 5 в приводе TSSTcorpCDDVDW SH-S203B
Трек успешно извлечён
Заключение: этот трек - CDDA с вероятностью 100%
Временный файл удалён.
06 -===- трек 6 в приводе TSSTcorpCDDVDW SH-S203B
Трек успешно извлечён
Заключение: этот трек - CDDA с вероятностью 100%
Временный файл удалён.
07 -===- трек 7 в приводе TSSTcorpCDDVDW SH-S203B
Трек успешно извлечён
Заключение: этот трек - CDDA с вероятностью 100%
Временный файл удалён.
08 -===- трек 8 в приводе TSSTcorpCDDVDW SH-S203B
Трек успешно извлечён
Заключение: этот трек - CDDA с вероятностью 100%
Временный файл удалён.
09 -===- трек 9 в приводе TSSTcorpCDDVDW SH-S203B
Трек успешно извлечён
Заключение: этот трек - CDDA с вероятностью 100%
Временный файл удалён.
10 -===- трек 10 в приводе TSSTcorpCDDVDW SH-S203B
Трек успешно извлечён
Заключение: этот трек - CDDA с вероятностью 100%
Временный файл удалён.
11 -===- трек 11 в приводе TSSTcorpCDDVDW SH-S203B
Трек успешно извлечён
Заключение: этот трек - CDDA с вероятностью 100%
Временный файл удалён.
Завершено: среда, 22. 04. 2009. - 19:29.27 (Время операции: 0:15.10)
По всем вопросам пишите личное сообщение пользователю M0p94ok.
05:53
194
Нет комментариев. Ваш будет первым!