Поиск

(Tango-Jazz / Tango Nuevo) New Tango Orquesta - The Kiev Concert - 2009 [Live], FLAC (tracks+.cue), lossless

(Tango-Jazz / Tango Nuevo) New Tango Orquesta - The Kiev Concert - 2009 [Live], FLAC (tracks+.cue), lossless
Треклист:
New Tango Orquesta - The Kiev Concert
Жанр: Tango-Jazz / Tango Nuevo
Год выпуска : 2009
Лейбл: Hoob
Аудио кодек: FLAC
Тип рипа: tracks+.cue
Битрейт аудио: lossless
Продолжительность: 00:48:24
Рип: What CD


01. Elegy (3:44)
02. Bestiario (5:20)
03. Push (6:09)
04. Nemo (8:38)
05. No stop city (6:31)
06. Part III (1:38)
07. Cinnamon (6:20)
08. Avantgardia (4:52)
09. Mute (5:14)

 
EAC
Exact Audio Copy V0.99 prebeta 4 from 23. January 2008
EAC extraction logfile from 6. August 2009, 19:46
New Tango Orquesta / The Kiev Concert
Used drive : Optiarc DVD RW AD-5170A Adapter: 0 ID: 0
Read mode : Secure
Utilize accurate stream : Yes
Defeat audio cache : Yes
Make use of C2 pointers : No
Read offset correction : 48
Overread into Lead-In and Lead-Out : No
Fill up missing offset samples with silence : Yes
Delete leading and trailing silent blocks : No
Null samples used in CRC calculations : Yes
Used interface : Native Win32 interface for Win NT & 2000
Gap handling : Appended to previous track
Used output format : User Defined Encoder
Selected bitrate : 320 kBit/s
Quality : High
Add ID3 tag : No
Command line compressor : C:\Program Files\Exact Audio Copy\FLAC\FLAC.EXE
Additional command line options : -V -8 -T "artist=%a" -T "title=%t" -T "album=%g" -T "date=%y" -T "tracknumber=%n" -T "genre=%m" %s
TOC of the extracted CD
Track | Start | Length | Start sector | End sector
---------------------------------------------------------
1 | 0:00.00 | 3:43.58 | 0 | 16782
2 | 3:43.58 | 5:19.38 | 16783 | 40745
3 | 9:03.21 | 6:09.02 | 40746 | 68422
4 | 15:12.23 | 8:37.44 | 68423 | 107241
5 | 23:49.67 | 6:30.62 | 107242 | 136553
6 | 30:20.54 | 1:37.70 | 136554 | 143898
7 | 31:58.49 | 6:19.53 | 143899 | 172376
8 | 38:18.27 | 4:51.67 | 172377 | 194268
9 | 43:10.19 | 5:13.60 | 194269 | 217803
Track 1
Filename K:\[ Torrents ]\New Tango Orquesta\New Tango Orquesta - The Kiev Concert (2009) [flac]\01 - Elegy.wav
Pre-gap length 0:00:02.00
Peak level 80.8 %
Track quality 99.9 %
Test CRC 28160F39
Copy CRC 28160F39
Track not present in AccurateRip database
Copy OK
Track 2
Filename K:\[ Torrents ]\New Tango Orquesta\New Tango Orquesta - The Kiev Concert (2009) [flac]\02 - Bestiario.wav
Peak level 98.8 %
Track quality 100.0 %
Test CRC 7A0D186F
Copy CRC 7A0D186F
Track not present in AccurateRip database
Copy OK
Track 3
Filename K:\[ Torrents ]\New Tango Orquesta\New Tango Orquesta - The Kiev Concert (2009) [flac]\03 - Push.wav
Peak level 98.8 %
Track quality 100.0 %
Test CRC A85ABD4B
Copy CRC A85ABD4B
Track not present in AccurateRip database
Copy OK
Track 4
Filename K:\[ Torrents ]\New Tango Orquesta\New Tango Orquesta - The Kiev Concert (2009) [flac]\04 - Nemo.wav
Peak level 91.9 %
Track quality 100.0 %
Test CRC 5DE6FE1F
Copy CRC 5DE6FE1F
Track not present in AccurateRip database
Copy OK
Track 5
Filename K:\[ Torrents ]\New Tango Orquesta\New Tango Orquesta - The Kiev Concert (2009) [flac]\05 - No stop city.wav
Peak level 98.8 %
Track quality 99.9 %
Test CRC C7D6213A
Copy CRC C7D6213A
Track not present in AccurateRip database
Copy OK
Track 6
Filename K:\[ Torrents ]\New Tango Orquesta\New Tango Orquesta - The Kiev Concert (2009) [flac]\06 - Part III.wav
Peak level 89.7 %
Track quality 100.0 %
Test CRC 25C650C2
Copy CRC 25C650C2
Track not present in AccurateRip database
Copy OK
Track 7
Filename K:\[ Torrents ]\New Tango Orquesta\New Tango Orquesta - The Kiev Concert (2009) [flac]\07 - Cinnamon.wav
Peak level 98.7 %
Track quality 100.0 %
Test CRC C9063DFC
Copy CRC C9063DFC
Track not present in AccurateRip database
Copy OK
Track 8
Filename K:\[ Torrents ]\New Tango Orquesta\New Tango Orquesta - The Kiev Concert (2009) [flac]\08 - Avantgardia.wav
Peak level 98.8 %
Track quality 99.9 %
Test CRC 73703EDB
Copy CRC 73703EDB
Track not present in AccurateRip database
Copy OK
Track 9
Filename K:\[ Torrents ]\New Tango Orquesta\New Tango Orquesta - The Kiev Concert (2009) [flac]\09 - Mute.wav
Peak level 95.4 %
Track quality 99.9 %
Test CRC B378B406
Copy CRC B378B406
Track not present in AccurateRip database
Copy OK
None of the tracks are present in the AccurateRip database
No errors occurred
End of status report
 
CUE
REM GENRE Jazz
REM DATE 2009
REM DISCID 600B5809
REM COMMENT "ExactAudioCopy v0.99pb4"
FILE "01 - Elegy.wav" WAVE
TRACK 01 AUDIO
INDEX 01 00:00:00
FILE "02 - Bestiario.wav" WAVE
TRACK 02 AUDIO
INDEX 01 00:00:00
FILE "03 - Push.wav" WAVE
TRACK 03 AUDIO
INDEX 01 00:00:00
FILE "04 - Nemo.wav" WAVE
TRACK 04 AUDIO
INDEX 01 00:00:00
FILE "05 - No stop city.wav" WAVE
TRACK 05 AUDIO
INDEX 01 00:00:00
FILE "06 - Part III.wav" WAVE
TRACK 06 AUDIO
INDEX 01 00:00:00
FILE "07 - Cinnamon.wav" WAVE
TRACK 07 AUDIO
INDEX 01 00:00:00
FILE "08 - Avantgardia.wav" WAVE
TRACK 08 AUDIO
INDEX 01 00:00:00
FILE "09 - Mute.wav" WAVE
TRACK 09 AUDIO
INDEX 01 00:00:00
 
Рецензия
Шведский коллектив New Tango Orquesta — единственный в мире оркестр, который создает и играет оригинальное живое танго. С того момента, как был выпущен их дебютный диск, захваленный критиками, любимый усатыми идальго и дамами с розами в волосах и шипами в глазах, прошло совсем немного времени, но музыканты уже успели съездить на гастроли, получить звание заслуженных деятелей культуры и написать музыку для шведского фильма «В тени танго». Кроме того, коллектив выпустил второй альбом с интригующим киношно-книжным названием Part II.
Авангардное танго, которое играет New Tango Orquesta, вряд ли оставит кого-то равнодушным, это музыка для страстных людей. Музыканты используют аккордеон (Per Storby), фортепиано и электро-орган (Thomas Gustavsson), контрабас (Josef Kallerdahl), скрипку (Livet Nord), электро- и полуакустическую гитару (Peter Grahn). NTO превращают композиции в живую экзистенцию, замешивая коктейль из четырех частных фуг и гармоний в импровизацию, потрясающие басовые партии и агрессив-джаз. Выступления New Tango Orquesta темпераментные, страстные до сумасшествия, парадоксально печальные и немного злобные. Танго, как и джаз, музыка для танца. И трудно себе представить эту музыку без любящей пары, окутанной магией традиций и тайной движений.
Участники квинтета — профессиональные музыканты из Швеции, работающие вместе с 1995 года. Их первый диск The New Tango Orquesta был выпущен в апреле 1998-го и мгновенно достиг вершин национальных хит-парадов и топ-листа Swedish Radio, которое давно снискало репутацию радио серьезного музыкального формата. Группа пользуется популярностью, успешно гастролирует и выступает на джазовых фестивалях, в театрах, ресторанах, клубах, кафе, частных вечеринках и даже в церквях.
В 1998 году ансамбль получает Высшую награду Швеции «За создание и развитие особого стиля музыки». В 1999 году музыкантов пригласили совершить концертный тур по странам-родителям танго — в Уругвай и Аргентину. В Буэнос-Айресе New Tango Orquesta выступали в Центре Астора Пиацолло, где их с энтузиазмом принимали члены семьи квинтета знаменитого маэстро танго, выступление закончилось бурными овациями.
Альбом Part II стал чем-то темным из прошлого, но несущим в будущее без малейшей остановки и регресса. Уникальная композиция и звук лишь добавляют энергии и скорости, а роковые рифы, импровизация и фуга рождают страсть будущего в обстановке всеобщего хаоса и неприкаянности.
Ингрид Штромдаль, «Svenska Dagbladet»
Почитав рецензию, вы поймёте, что определится какой жанр прописать данному коллективу, было нереально.
Но может скачавшие выразят своё мнение, и я допишу в жанр что-либо знакомое..
Download available for power users only.
07:19
208
Нет комментариев. Ваш будет первым!