Поиск

(Bosa Nova, Jazz) Antonio Carlos Jobim - Tide - 1970(2000 - reissue, bonus tracks), APE (image+.cue), lossless

(Bosa Nova, Jazz) Antonio Carlos Jobim - Tide - 1970(2000 - reissue, bonus tracks), APE (image+.cue), lossless
Треклист:
Antonio Carlos Jobim - Tide
Жанр: Bosa Nova, Jazz
Издание: VERVE, 543 500-2, 2000 год
Аудио кодек: APE
Тип рипа: image+.cue
Битрейт аудио: lossless
Продолжительность: 0:57:15
Трэклист:
01. The Girl from Ipanema
02. Carinhoso
03. Tema Jazz
04. Sue Ann
05. Remember
06. Tide
07. Takatanga
08. Caribe
09. Rockanalia
10. Tema Jazz - alternative take
11. Tide - alternative take
12. Tema Jazz - alternative take
13. Tema Jazz - alternative take in full
Персоналии:
Antonio Carlos Jobim – piano, electric piano, guitar
Hubert Laws – flute
Joe Farrell – flute, bass flute, soprano saxophone
Ron Carter – double bass
Airto Moreira – percussion
и ещё много гораздо менее известных музыкантов
 
Отчёт EAC
Exact Audio Copy V0.99 prebeta 4 from 23. January 2008
Отчёт EAC об извлечении, выполненном 8. августа 2009, 16:36
Antonio Carlos Jobim / Tide
Дисковод: PIONEER DVD-RW DVR-108 Adapter: 4 ID: 1
Режим чтения : Достоверность
Использование точного потока : Да
Отключение кэша аудио : Да
Использование указателей C2 : Нет
Коррекция смещения при чтении : 48
Способность читать области Lead-in и Lead-out : Нет
Заполнение пропущенных сэмплов тишиной : Да
Удаление блоков с тишиной в начале и конце : Нет
При вычислениях CRC использовались нулевые сэмплы : Да
Интерфейс : Встроенный Win32-интерфейс для Win NT/2000
Выходной формат : Внутренние WAV-операции
Формат сэмплов : 44.100 Гц; 16 бит; стерео
TOC извлечённого CD
Трек | Старт | Длительность | Начальный сектор | Конечный сектор
---------------------------------------------------------------------
1 | 0:00.00 | 4:53.10 | 0 | 21984
2 | 4:53.10 | 2:48.73 | 21985 | 34657
3 | 7:42.08 | 4:36.37 | 34658 | 55394
4 | 12:18.45 | 3:05.30 | 55395 | 69299
5 | 15:24.00 | 4:04.43 | 69300 | 87642
6 | 19:28.43 | 4:06.45 | 87643 | 106137
7 | 23:35.13 | 4:44.47 | 106138 | 127484
8 | 28:19.60 | 2:44.55 | 127485 | 139839
9 | 31:04.40 | 5:02.30 | 139840 | 162519
10 | 36:06.70 | 2:59.05 | 162520 | 175949
11 | 39:06.00 | 4:08.13 | 175950 | 194562
12 | 43:14.13 | 5:49.62 | 194563 | 220799
13 | 49:04.00 | 8:11.08 | 220800 | 257632
Характеристики диапазона извлечения и сообщения об ошибках
Выбранный диапазон
Имя файла J:\New Torrents\Antonio Carlos Jobim - Tide\Antonio Carlos Jobim - Tide.wav
Пиковый уровень 100.0 %
Качество диапазона 100.0 %
CRC копии D63F4D40
Копирование... OK
Ошибок не произошло
AccurateRip: сводка
Трек 1 точное извлечение (доверие 1) [09A71AEB]
Трек 2 точное извлечение (доверие 1) [F8276F82]
Трек 3 точное извлечение (доверие 1) [742C08C5]
Трек 4 точное извлечение (доверие 1) [907C56AE]
Трек 5 точное извлечение (доверие 1) [85788EDC]
Трек 6 точное извлечение (доверие 1) [26B22607]
Трек 7 точное извлечение (доверие 1) [1EAAEBF1]
Трек 8 точное извлечение (доверие 1) [7350825E]
Трек 9 точное извлечение (доверие 1) [0BA8B578]
Трек 10 точное извлечение (доверие 1) [1133F376]
Трек 11 точное извлечение (доверие 1) [A714F5F9]
Трек 12 точное извлечение (доверие 1) [56A73625]
Трек 13 точное извлечение (доверие 1) [E25F82E1]
Все треки извлечены точно
Конец отчёта
Альбом уже раздаётся в составе другой раздачи, но там нет логов.
В раздачу включены сканы (300dpi, tif) на 83.1 Мб - желающие могут исключить их из закачки.
Download available for power users only.
07:20
378
Нет комментариев. Ваш будет первым!