Поиск

(Swing) Bob Wilber & Kenny Davern - Summit Reunion - 1990, FLAC (image+.cue), lossless

(Swing) Bob Wilber & Kenny Davern - Summit Reunion - 1990, FLAC (image+.cue), lossless
Треклист:
•Bob Wilber & Kenny Davern - Summit Reunion•
Жанр: Swing
Страна-производитель диска: USA
Год издания: 1990
Издатель (лейбл): Chiaroscuro Records
Номер по каталогу: CR(D) 311
Аудиокодек: FLAC (*.flac)
Тип рипа: image+.cue
Битрейт аудио: lossless
Продолжительность: 01:09:13
Источник (релизер): malieff
Наличие сканов в содержимом раздачи: да
Треклист:
01. As Long As I Live [05:36]
02. Love Come Back To Me [06:08]
03. St. Louis Blues [11:22]
04. Black And Blue [04:54]
05. Should I [06:26]
06. Palesteena [03:06]
07. Old Fashioned Love [06:15]
08. On The Sunny Side Of The Street [07:46]
09. Limehouse Blues [05:38]
10. Jazzspeak [11:59]
Personnel:
Bob Wilber (soprano saxophone, clarinet);
Kenny Davern (clarinet);
Dick Hyman (piano);
Bucky Pizzarelli (guitar);
Milt Hinton (bass);
Bobby Rosengarden (drums).Recorded 30-31 May 1990 in Englewood Cliffs, New Jersey. Recording Engineer and Digital Master - Rudy Van Gelder.
 
Лог создания рипа
Exact Audio Copy V1.0 beta 3 from 29. August 2011
EAC extraction logfile from 10. September 2012, 13:49
Bob Wilber & Kenny Davern / Summit Reunion
Used drive : Optiarc DVD RW AD-7243S Adapter: 4 ID: 0
Read mode : Secure
Utilize accurate stream : Yes
Defeat audio cache : Yes
Make use of C2 pointers : No
Read offset correction : 48
Overread into Lead-In and Lead-Out : No
Fill up missing offset samples with silence : Yes
Delete leading and trailing silent blocks : No
Null samples used in CRC calculations : Yes
Used interface : Native Win32 interface for Win NT & 2000
Used output format : Internal WAV Routines
Sample format : 44.100 Hz; 16 Bit; Stereo
TOC of the extracted CD
Track | Start | Length | Start sector | End sector
---------------------------------------------------------
1 | 0:00.00 | 5:38.41 | 0 | 25390
2 | 5:38.41 | 6:10.37 | 25391 | 53177
3 | 11:49.03 | 11:24.50 | 53178 | 104527
4 | 23:13.53 | 4:56.27 | 104528 | 126754
5 | 28:10.05 | 6:28.33 | 126755 | 155887
6 | 34:38.38 | 3:08.24 | 155888 | 170011
7 | 37:46.62 | 6:17.34 | 170012 | 198320
8 | 44:04.21 | 7:48.39 | 198321 | 233459
9 | 51:52.60 | 5:38.44 | 233460 | 258853
10 | 57:31.29 | 11:59.18 | 258854 | 312796
Range status and errors
Selected range
Filename E:\1\Bob Wilber & Kenny Davern - Summit Reunion.wav
Peak level 95.0 %
Extraction speed 2.5 X
Range quality 99.7 %
Copy CRC 89D1DDB3
Copy OK
No errors occurred
AccurateRip summary
Track 1 not present in database
Track 2 not present in database
Track 3 not present in database
Track 4 not present in database
Track 5 not present in database
Track 6 not present in database
Track 7 not present in database
Track 8 not present in database
Track 9 not present in database
Track 10 not present in database
None of the tracks are present in the AccurateRip database
End of status report
==== Log checksum C964A709BCE92659379191733CA79F304045AA4954D8C3FFAB66420B9E685CF4 ====
 
Содержание индексной карты (.CUE)
REM GENRE Jazz
REM DATE 1990
REM DISCID 7C104A0A
REM COMMENT "ExactAudioCopy v1.0b3"
PERFORMER "Bob Wilber & Kenny Davern"
TITLE "Summit Reunion"
FILE "Bob Wilber & Kenny Davern - Summit Reunion.flac" WAVE
TRACK 01 AUDIO
TITLE "As Long As I Live"
PERFORMER "Bob Wilber & Kenny Davern"
INDEX 01 00:00:00
TRACK 02 AUDIO
TITLE "Love Come Back To Me"
PERFORMER "Bob Wilber & Kenny Davern"
INDEX 00 05:36:30
INDEX 01 05:38:41
TRACK 03 AUDIO
TITLE "St. Louis Blues"
PERFORMER "Bob Wilber & Kenny Davern"
INDEX 00 11:46:70
INDEX 01 11:49:03
TRACK 04 AUDIO
TITLE "Black And Blue"
PERFORMER "Bob Wilber & Kenny Davern"
INDEX 00 23:11:38
INDEX 01 23:13:53
TRACK 05 AUDIO
TITLE "Should I"
PERFORMER "Bob Wilber & Kenny Davern"
INDEX 00 28:07:70
INDEX 01 28:10:05
TRACK 06 AUDIO
TITLE "Palesteena"
PERFORMER "Bob Wilber & Kenny Davern"
INDEX 00 34:36:31
INDEX 01 34:38:38
TRACK 07 AUDIO
TITLE "Old Fashioned Love"
PERFORMER "Bob Wilber & Kenny Davern"
INDEX 00 37:44:50
INDEX 01 37:46:62
TRACK 08 AUDIO
TITLE "On The Sunny Side Of The Street"
PERFORMER "Bob Wilber & Kenny Davern"
INDEX 00 44:02:16
INDEX 01 44:04:21
TRACK 09 AUDIO
TITLE "Limehouse Blues"
PERFORMER "Bob Wilber & Kenny Davern"
INDEX 00 51:50:50
INDEX 01 51:52:60
TRACK 10 AUDIO
TITLE "Jazzspeak"
PERFORMER "Bob Wilber & Kenny Davern"
INDEX 00 57:31:17
INDEX 01 57:31:29
Download available for power users only.
04:36
398
Нет комментариев. Ваш будет первым!