Поиск

(Spiritual, Modal) [CD] Alice Coltrane - Turiyasangitananda - Alice Coltrane - Turiyasangitananda - Infinite Chants - 1990, FLAC (tracks+.cue), lossless

(Spiritual, Modal) [CD] Alice Coltrane - Turiyasangitananda - Alice Coltrane - Turiyasangitananda - Infinite Chants - 1990, FLAC (tracks+.cue), lossless
Треклист:
Alice Coltrane - Turiyasangitananda - Infinite Chants
Жанр: Spiritual, Modal
Носитель: CD
Страна-производитель диска (релиза): United States
Год издания: 1990
Издатель (лейбл): Avatar Book Institute
Аудиокодек: FLAC (*.flac)
Тип рипа: tracks+.cue
Битрейт аудио: lossless
Источник (релизер): CD
Наличие сканов в содержимом раздачи: нет
Треклист:
01 - Sita Ram
02 - Om Rama
03 - Rama Guru
04 - Hari's Rupa & Siva Mantra
05 - Radhe Govinda
06 - Gopala
07 - Krishna Japaye
08 - Hidden Track 1
09 - Hidden Track 2
 
Лог создания рипа
Exact Audio Copy V1.3 from 2. September 2016
EAC extraction logfile from 27. September 2016, 2:15
Alice Coltrane-Turiyasangitananda / Infinite Chants
Used drive : PLDS DVDRWBD DS-6E2SH Adapter: 1 ID: 0
Read mode : Burst
Read offset correction : 6
Overread into Lead-In and Lead-Out : No
Fill up missing offset samples with silence : Yes
Delete leading and trailing silent blocks : No
Null samples used in CRC calculations : Yes
Used interface : Native Win32 interface for Win NT & 2000
Gap handling : Appended to previous track
Used output format : User Defined Encoder
Selected bitrate : 768 kBit/s
Quality : High
Add ID3 tag : No
Command line compressor : C:\Program Files (x86)\Exact Audio Copy\FLAC\FLAC.EXE
Additional command line options : -8 -V -T "ARTIST=%artist%" -T "TITLE=%title%" -T "ALBUM=%albumtitle%" -T "DATE=%year%" -T "TRACKNUMBER=%tracknr%" -T "GENRE=%genre%" -T "COMMENT=%comment%" -T "BAND=%albuminterpret%" -T "COMPOSER=%composer%" %haslyrics%--tag-from-file=LYRICS="%lyricsfile%"%haslyrics% -T "DISCNUMBER=%cdnumber%" -T "TOTALDISCS=%totalcds%" -T "TOTALTRACKS=%numtracks%" %hascover%--picture="%coverfile%"%hascover% %source% -o %dest%
TOC of the extracted CD
Track | Start | Length | Start sector | End sector
---------------------------------------------------------
1 | 0:00.00 | 9:53.67 | 0 | 44541
2 | 9:53.67 | 9:02.51 | 44542 | 85242
3 | 18:56.43 | 5:46.52 | 85243 | 111244
4 | 24:43.20 | 2:12.55 | 111245 | 121199
5 | 26:56.00 | 6:37.26 | 121200 | 151000
6 | 33:33.26 | 9:28.74 | 151001 | 193674
7 | 43:02.25 | 5:58.04 | 193675 | 220528
8 | 49:00.29 | 5:28.02 | 220529 | 245130
9 | 54:28.31 | 1:56.53 | 245131 | 253883
Track 1
Filename C:\EACRips\01 - Sita Ram.wav
Pre-gap length 0:00:02.00
Peak level 100.0 %
Extraction speed 10.5 X
Test CRC 476AA3C9
Copy CRC 476AA3C9
Track not present in AccurateRip database
Copy OK
Track 2
Filename C:\EACRips\02 - Om Rama.wav
Peak level 100.0 %
Extraction speed 13.0 X
Test CRC E7D74B23
Copy CRC E7D74B23
Track not present in AccurateRip database
Copy OK
Track 3
Filename C:\EACRips\03 - Rama Guru.wav
Peak level 100.0 %
Extraction speed 14.6 X
Test CRC DEBF149C
Copy CRC DEBF149C
Track not present in AccurateRip database
Copy OK
Track 4
Filename C:\EACRips\04 - Hari's Rupa & Siva Mantra.wav
Peak level 100.0 %
Extraction speed 15.3 X
Test CRC E8302BDA
Copy CRC E8302BDA
Track not present in AccurateRip database
Copy OK
Track 5
Filename C:\EACRips\05 - Radhe Govinda.wav
Peak level 99.9 %
Extraction speed 16.2 X
Test CRC C3C61204
Copy CRC C3C61204
Track not present in AccurateRip database
Copy OK
Track 6
Filename C:\EACRips\06 - Gopala.wav
Peak level 100.0 %
Extraction speed 17.6 X
Test CRC 70FAD5B1
Copy CRC 70FAD5B1
Track not present in AccurateRip database
Copy OK
Track 7
Filename C:\EACRips\07 - Krishna Japaye.wav
Peak level 100.0 %
Extraction speed 18.9 X
Test CRC C7012A6F
Copy CRC C7012A6F
Track not present in AccurateRip database
Copy OK
Track 8
Filename C:\EACRips\08 - Hidden Track 1.wav
Peak level 100.0 %
Extraction speed 19.8 X
Test CRC 1F6CF538
Copy CRC 1F6CF538
Track not present in AccurateRip database
Copy OK
Track 9
Filename C:\EACRips\09 - Hidden Track 2.wav
Peak level 100.0 %
Extraction speed 20.0 X
Test CRC A5B1840E
Copy CRC A5B1840E
Track not present in AccurateRip database
Copy OK
None of the tracks are present in the AccurateRip database
No errors occurred
End of status report
---- CUETools DB Plugin V2.1.6
[CTDB TOCID: PxXYFm7XLfKYzfQQ9jwx1F_Cmks-] found
Submit result: PxXYFm7XLfKYzfQQ9jwx1F_Cmks- has been confirmed
Track | CTDB Status
1 | (1/1) Accurately ripped
2 | (1/1) Accurately ripped
3 | (1/1) Accurately ripped
4 | (1/1) Accurately ripped
5 | (1/1) Accurately ripped
6 | (1/1) Accurately ripped
7 | (1/1) Accurately ripped
8 | (1/1) Accurately ripped
9 | (1/1) Accurately ripped
 
Содержание индексной карты (.CUE)
REM GENRE Spiritual
REM DATE 2003
REM DISCID 7C0D3909
REM COMMENT "ExactAudioCopy v1.3"
PERFORMER "Alice Coltrane-Turiyasangitananda"
TITLE "Infinite Chants"
REM COMPOSER ""
FILE "01 - Sita Ram.wav" WAVE
TRACK 01 AUDIO
TITLE "Sita Ram"
PERFORMER "Alice Coltrane-Turiyasangitananda"
REM COMPOSER ""
INDEX 01 00:00:00
FILE "02 - Om Rama.wav" WAVE
TRACK 02 AUDIO
TITLE "Om Rama"
PERFORMER "Alice Coltrane-Turiyasangitananda"
REM COMPOSER ""
INDEX 01 00:00:00
TRACK 03 AUDIO
TITLE "Rama Guru"
PERFORMER "Alice Coltrane-Turiyasangitananda"
REM COMPOSER ""
INDEX 00 00:00:00
FILE "03 - Rama Guru.wav" WAVE
INDEX 01 00:00:00
TRACK 04 AUDIO
TITLE "Hari's Rupa & Siva Mantra"
PERFORMER "Alice Coltrane-Turiyasangitananda"
REM COMPOSER ""
INDEX 00 01:58:24
FILE "04 - Hari's Rupa & Siva Mantra.wav" WAVE
INDEX 01 00:00:00
TRACK 05 AUDIO
TITLE "Radhe Govinda"
PERFORMER "Alice Coltrane-Turiyasangitananda"
REM COMPOSER ""
INDEX 00 96:11:47
FILE "05 - Radhe Govinda.wav" WAVE
INDEX 01 00:00:00
TRACK 06 AUDIO
TITLE "Gopala"
PERFORMER "Alice Coltrane-Turiyasangitananda"
REM COMPOSER ""
INDEX 00 93:58:67
FILE "06 - Gopala.wav" WAVE
INDEX 01 00:00:00
TRACK 07 AUDIO
TITLE "Krishna Japaye"
PERFORMER "Alice Coltrane-Turiyasangitananda"
REM COMPOSER ""
INDEX 00 87:21:41
FILE "07 - Krishna Japaye.wav" WAVE
INDEX 01 00:00:00
TRACK 08 AUDIO
TITLE "Hidden Track 1"
PERFORMER "Alice Coltrane-Turiyasangitananda"
REM COMPOSER ""
INDEX 00 77:52:42
FILE "08 - Hidden Track 1.wav" WAVE
INDEX 01 00:00:00
TRACK 09 AUDIO
TITLE "Hidden Track 2"
PERFORMER "Alice Coltrane-Turiyasangitananda"
REM COMPOSER ""
INDEX 00 71:54:38
FILE "09 - Hidden Track 2.wav" WAVE
INDEX 01 00:00:00
22:10
584
Нет комментариев. Ваш будет первым!