Поиск

(Bossa Nova) [CD] Jim Tomlinson - Brazilian Sketches - 2001, FLAC (image+.cue), lossless

(Bossa Nova) [CD] Jim Tomlinson - Brazilian Sketches - 2001, FLAC (image+.cue), lossless
Треклист:
Jim Tomlinson - Brazilian Sketches Жанр: Bossa Nova
Носитель: CD
Год издания: 2001
Издатель (лейбл): Candid Productions
Номер по каталогу: CCD 79769
Аудиокодек: FLAC (*.flac)
Тип рипа: image+.cue
Битрейт аудио: lossless
Продолжительность: 51:29
Источник (релизер): sashaz51
Наличие сканов в содержимом раздачи: front, back сетевые
Треклист:
01. Dreamer (5:03)
02. Caminhos Cruzados (4:14)
03. Ligia (4:42)
04. So Nice (4:36)
05. Só Danço Samba (5:19)
06. Once I Loved (4:32)
07. I Concentrate On You (6:34)
08. Portrait In Black & White (3:38)
09. She's A Carioca (3:41)
10. The Gentle Rain (4:24)
11. No More Blues (4:47)
Personnel:
Jim Tomlinson - ts
Colin Oxley - g
John Pearce (1, 4-6, 11), David Newton (2, 7, 10) - p
Simon Thorpe - b
Chris Wells - d, perc
Stacey Kent (1, 4, 7, 10) - vo
 
 
Лог создания рипа
Exact Audio Copy V1.0 beta 3 from 29. August 2011
Отчёт EAC об извлечении, выполненном 1. февраля 2014, 18:09
Jim Tomlinson / Brazilian Sketches
Дисковод: _NEC DVD_RW ND-3540A Adapter: 0 ID: 0
Режим чтения : Достоверность
Использование точного потока : Да
Отключение кэша аудио : Да
Использование указателей C2 : Нет
Коррекция смещения при чтении : 48
Способность читать области Lead-in и Lead-out : Нет
Заполнение пропущенных сэмплов тишиной : Да
Удаление блоков с тишиной в начале и конце : Нет
При вычислениях CRC использовались нулевые сэмплы : Да
Интерфейс : Встроенный Win32-интерфейс для Win NT/2000
Выходной формат : Пользовательский кодировщик
Выбранный битрейт : 512 kBit/s
Качество : Высокий
Добавление ID3-тега : Нет
Утилита сжатия : G:\Program Files\Exact Audio Copy\Flac\flac.exe
Дополнительные параметры : -V -8 -T "Date=%year%" -T "Genre=%genre%" %source%
TOC извлечённого CD
Трек | Старт | Длительность | Начальный сектор | Конечный сектор
---------------------------------------------------------------------
1 | 0:00.00 | 5:03.28 | 0 | 22752
2 | 5:03.28 | 4:13.66 | 22753 | 41793
3 | 9:17.19 | 4:41.74 | 41794 | 62942
4 | 13:59.18 | 4:36.20 | 62943 | 83662
5 | 18:35.38 | 5:18.44 | 83663 | 107556
6 | 23:54.07 | 4:31.51 | 107557 | 127932
7 | 28:25.58 | 6:34.03 | 127933 | 157485
8 | 34:59.61 | 3:37.54 | 157486 | 173814
9 | 38:37.40 | 3:40.49 | 173815 | 190363
10 | 42:18.14 | 4:23.60 | 190364 | 210148
11 | 46:41.74 | 4:46.58 | 210149 | 231656
Характеристики диапазона извлечения и сообщения об ошибках
Выбранный диапазон
Имя файла Z:\Download\Music\MyOwn\Jim Tomlinson - 2001 - Brazilian Sketches\Jim Tomlinson - Brazilian Sketches.wav
Пиковый уровень 98.8 %
Скорость извлечения 7.5 X
Качество диапазона 100.0 %
CRC теста 15E2F619
CRC копии 15E2F619
Копирование... OK
Ошибок не произошло
AccurateRip: сводка
Трек 1 : извлечено точно (доверие 8) [2BBE3401] (AR v2)
Трек 2 : извлечено точно (доверие 8) [15B96447] (AR v2)
Трек 3 : извлечено точно (доверие 8) [978567F5] (AR v2)
Трек 4 : извлечено точно (доверие 9) [7CF15230] (AR v2)
Трек 5 : извлечено точно (доверие 9) [570FF3BF] (AR v2)
Трек 6 : извлечено точно (доверие 8) [CC008B1B] (AR v2)
Трек 7 : извлечено точно (доверие 8) [41A85381] (AR v2)
Трек 8 : извлечено точно (доверие 8) [482B4DE8] (AR v2)
Трек 9 : извлечено точно (доверие 8) [1CCA4FE3] (AR v2)
Трек 10 : извлечено точно (доверие 9) [6D29F6E9] (AR v2)
Трек 11 : извлечено точно (доверие 6) [C7E87ABC] (AR v2)
Все треки извлечены точно
Конец отчёта
==== Контрольная сумма отчёта FFA8DA8C7BCEBF655DDA49AC3755EF314E4DC41D2671E7738E7DCE3CC31B44BB ====
 
Содержание индексной карты (.CUE)
REM GENRE Bossa Nova
REM DATE 2001
REM DISCID 7C0C100B
REM COMMENT "ExactAudioCopy v1.0b3"
PERFORMER "Jim Tomlinson"
TITLE "Brazilian Sketches"
FILE "Jim Tomlinson - Brazilian Sketches.flac" WAVE
TRACK 01 AUDIO
TITLE "Dreamer"
PERFORMER "Jim Tomlinson"
INDEX 01 00:00:00
TRACK 02 AUDIO
TITLE "Caminhos Cruzados"
PERFORMER "Jim Tomlinson"
INDEX 00 05:01:28
INDEX 01 05:03:28
TRACK 03 AUDIO
TITLE "Ligia"
PERFORMER "Jim Tomlinson"
INDEX 00 09:15:19
INDEX 01 09:17:19
TRACK 04 AUDIO
TITLE "So Nice"
PERFORMER "Jim Tomlinson"
INDEX 00 13:57:18
INDEX 01 13:59:18
TRACK 05 AUDIO
TITLE "Só Danço Samba"
PERFORMER "Jim Tomlinson"
INDEX 00 18:33:38
INDEX 01 18:35:38
TRACK 06 AUDIO
TITLE "Once I Loved"
PERFORMER "Jim Tomlinson"
INDEX 00 23:52:07
INDEX 01 23:54:07
TRACK 07 AUDIO
TITLE "I Concentrate On You"
PERFORMER "Jim Tomlinson"
INDEX 00 28:23:58
INDEX 01 28:25:58
TRACK 08 AUDIO
TITLE "Portrait In Black & White"
PERFORMER "Jim Tomlinson"
INDEX 00 34:57:61
INDEX 01 34:59:61
TRACK 09 AUDIO
TITLE "She's A Carioca"
PERFORMER "Jim Tomlinson"
INDEX 00 38:35:40
INDEX 01 38:37:40
TRACK 10 AUDIO
TITLE "The Gentle Rain"
PERFORMER "Jim Tomlinson"
INDEX 00 42:16:14
INDEX 01 42:18:14
TRACK 11 AUDIO
TITLE "No More Blues"
PERFORMER "Jim Tomlinson"
INDEX 00 46:39:74
INDEX 01 46:41:74
22:11
336
Нет комментариев. Ваш будет первым!