Вы используете незарегистрированную версию компонента "Вкладки"!

Поиск

(Spiritual Jazz, Psychedelic Folk, Space-Age, Avant-Garde Jazz) [CD] Brother Ah - Move Ever Onward (1975) - 2002, FLAC (tracks+.cue), lossless

(Spiritual Jazz, Psychedelic Folk, Space-Age, Avant-Garde Jazz) [CD] Brother Ah - Move Ever Onward (1975) - 2002, FLAC (tracks+.cue), lossless
Треклист:
Brother Ah
MOVE EVER ONWARD Жанр: Spiritual Jazz, Psychedelic Folk, Space-Age, Avant-Garde Jazz
Страна исполнителя (группы): US
Носитель: CD
Страна-производитель диска: US
Год издания: 2002
Издатель (лейбл): Ikef
Номер по каталогу: IKEF04
Аудиокодек: FLAC (*.flac)
Тип рипа: tracks+.cue
Битрейт аудио: lossless
Продолжительность: 00:55:12
Источник (релизер): what.cd (Cohelmec)
Наличие сканов в содержимом раздачи: нет
Треклист:
1. Nature's Children
2. Transfiguration
3. Enthusiasm
4. Spirits In The Night
5. Transcendental March (Creation Song)
6. Boundless Rhythm
7. Celestial Strings
8. Sweet Illumination 'Chile Woman'
 
Состав
- Brother Ah / Conductor, drums, flute, french horn, sitar, nature sounds
- Eugene Cooper / Bass
- Pat Patrick / Clarinet, saxophone [tenor], woodwind [shawm]
- John Belcher / Congas, drums
- Mbutu / Congas, drums, tabla
- Omowale / Drums, african drum
- Steve Solder / Drums, oboe
- Ras Karby / Drums, kiti kup
- Olu / Electric piano, piano
- Lance Dozier / Flute, pan flute
- Kufu Ptah / Gong, percussion, shakuhachi, space beam
- Ayida Tengemana / Guitar, vocals (5)
- Obowale / Guitar, percussion
- Dara / Kora, percussion, vocals (1)
- Barbara Mc Cloud / Koto
- Branice Inemugo Williams / Koto
- Carolyn Davis / Koto
- Elssi Atiba / Koto
- Harold Lucious / Koto
- Kamau / Performer (soloist)
- Kassin / Performer (soloist)
- Khadijah / Performer (soloist)
- Kwesi Gilbert Northern/ Performer (soloist) , vocals (4)
- Alfred Wade, Jr. / Tambourine
- Aiisha / Vocals (2, 8)

 
EAC log
Exact Audio Copy V0.99 prebeta 5 from 4. May 2009
EAC extraction logfile from 12. April 2010, 14:04
Brother Ah / Move Ever Onward
Used drive : MATSHITABD-RE UJ-225S Adapter: 0 ID: 0
Read mode : Secure
Utilize accurate stream : Yes
Defeat audio cache : Yes
Make use of C2 pointers : No
Read offset correction : 102
Overread into Lead-In and Lead-Out : No
Fill up missing offset samples with silence : Yes
Delete leading and trailing silent blocks : No
Null samples used in CRC calculations : Yes
Used interface : Native Win32 interface for Win NT & 2000
Gap handling : Appended to previous track
Used output format : User Defined Encoder
Selected bitrate : 768 kBit/s
Quality : High
Add ID3 tag : No
Command line compressor : C:\Users\Derek\Downloads\eac-0.99pb5\FLAC\FLAC.EXE
Additional command line options : -6 -V -T "ARTIST=%a" -T "TITLE=%t" -T "ALBUM=%g" -T "DATE=%y" -T "TRACKNUMBER=%n" -T "GENRE=%m" -T "COMMENT=%e" %s -o %d
TOC of the extracted CD
Track | Start | Length | Start sector | End sector
---------------------------------------------------------
1 | 0:00.00 | 6:16.49 | 0 | 28248
2 | 6:16.49 | 9:47.12 | 28249 | 72285
3 | 16:03.61 | 5:02.38 | 72286 | 94973
4 | 21:06.24 | 6:52.62 | 94974 | 125935
5 | 27:59.11 | 3:36.51 | 125936 | 142186
6 | 31:35.62 | 5:20.35 | 142187 | 166221
7 | 36:56.22 | 8:41.41 | 166222 | 205337
8 | 45:37.63 | 9:34.27 | 205338 | 248414
Track 1
Filename C:\FLAC\Brother Ah\Move Ever Onward\01. Nature's Children.wav
Pre-gap length 0:00:02.00
Peak level 94.4 %
Track quality 100.0 %
Test CRC 752818D9
Copy CRC 752818D9
Accurately ripped (confidence 1) [1391712A]
Copy OK
Track 2
Filename C:\FLAC\Brother Ah\Move Ever Onward\02. Transfiguration.wav
Pre-gap length 0:00:02.89
Peak level 98.7 %
Track quality 100.0 %
Test CRC AEFDFED9
Copy CRC AEFDFED9
Accurately ripped (confidence 1) [C1078277]
Copy OK
Track 3
Filename C:\FLAC\Brother Ah\Move Ever Onward\03. Enthusiasm.wav
Pre-gap length 0:00:02.88
Peak level 98.7 %
Track quality 99.9 %
Test CRC 079C728F
Copy CRC 079C728F
Accurately ripped (confidence 1) [9422AACA]
Copy OK
Track 4
Filename C:\FLAC\Brother Ah\Move Ever Onward\04. Spirits in the Night.wav
Pre-gap length 0:00:02.88
Peak level 96.9 %
Track quality 100.0 %
Test CRC 203355A0
Copy CRC 203355A0
Accurately ripped (confidence 1) [6A76DEDF]
Copy OK
Track 5
Filename C:\FLAC\Brother Ah\Move Ever Onward\05. Transcendental March (Creation Song).wav
Pre-gap length 0:00:02.89
Peak level 98.6 %
Track quality 100.0 %
Test CRC 59E74823
Copy CRC 59E74823
Accurately ripped (confidence 1) [73F2CB2D]
Copy OK
Track 6
Filename C:\FLAC\Brother Ah\Move Ever Onward\06. Boundless Rhythm.wav
Pre-gap length 0:00:02.88
Peak level 99.4 %
Track quality 99.9 %
Test CRC 356D4DF2
Copy CRC 356D4DF2
Accurately ripped (confidence 1) [56426AB1]
Copy OK
Track 7
Filename C:\FLAC\Brother Ah\Move Ever Onward\07. Celestial Strings.wav
Pre-gap length 0:00:02.89
Peak level 99.0 %
Track quality 100.0 %
Test CRC EE8CF61F
Copy CRC EE8CF61F
Accurately ripped (confidence 1) [16C69580]
Copy OK
Track 8
Filename C:\FLAC\Brother Ah\Move Ever Onward\08. Sweet Illumination 'Chile Woman'.wav
Pre-gap length 0:00:02.89
Peak level 91.3 %
Track quality 100.0 %
Test CRC 50BBFC44
Copy CRC 50BBFC44
Cannot be verified as accurate (confidence 1) [6F23D5CD], AccurateRip returned [64332131]
Copy OK
7 track(s) accurately ripped
1 track(s) could not be verified as accurate
Some tracks could not be verified as accurate
No errors occurred
End of status report
 
.cue
REM GENRE Psychedelic
REM DATE 1975
REM DISCID 840CF008
REM COMMENT "ExactAudioCopy v0.99pb5"
PERFORMER "Brother Ah"
TITLE "Move Ever Onward"
FILE "01. Nature's Children.wav" WAVE
TRACK 01 AUDIO
TITLE "Nature's Children"
PERFORMER "Brother Ah"
INDEX 01 00:00:00
TRACK 02 AUDIO
TITLE "Transfiguration"
PERFORMER "Brother Ah"
INDEX 00 06:13:57
FILE "02. Transfiguration.wav" WAVE
INDEX 01 00:00:00
TRACK 03 AUDIO
TITLE "Enthusiasm"
PERFORMER "Brother Ah"
INDEX 00 09:44:21
FILE "03. Enthusiasm.wav" WAVE
INDEX 01 00:00:00
TRACK 04 AUDIO
TITLE "Spirits in the Night"
PERFORMER "Brother Ah"
INDEX 00 04:59:47
FILE "04. Spirits in the Night.wav" WAVE
INDEX 01 00:00:00
TRACK 05 AUDIO
TITLE "Transcendental March (Creation Song)"
PERFORMER "Brother Ah"
INDEX 00 06:49:70
FILE "05. Transcendental March (Creation Song).wav" WAVE
INDEX 01 00:00:00
TRACK 06 AUDIO
TITLE "Boundless Rhythm"
PERFORMER "Brother Ah"
INDEX 00 03:33:60
FILE "06. Boundless Rhythm.wav" WAVE
INDEX 01 00:00:00
TRACK 07 AUDIO
TITLE "Celestial Strings"
PERFORMER "Brother Ah"
INDEX 00 05:17:43
FILE "07. Celestial Strings.wav" WAVE
INDEX 01 00:00:00
TRACK 08 AUDIO
TITLE "Sweet Illumination 'Chile Woman' "
PERFORMER "Brother Ah"
INDEX 00 08:38:49
FILE "08. Sweet Illumination 'Chile Woman'.wav" WAVE
INDEX 01 00:00:00
По всем вопросам пишите личное сообщение пользователю M0p94ok.
05:21
149
Нет комментариев. Ваш будет первым!