Вы используете незарегистрированную версию компонента "Вкладки"!

Поиск

(Avant-Garde Jazz, Free Improvisation, Discus) [CD] Weavels (Mick Beck, Chris Cundy, Alex Ward) - At Nether Edge - 2008, FLAC (tracks+.cue), lossless

(Avant-Garde Jazz, Free Improvisation, Discus) [CD] Weavels (Mick Beck, Chris Cundy, Alex Ward) - At Nether Edge - 2008, FLAC (tracks+.cue), lossless
Треклист:
Weavels / At Nether Edge
Жанр: Avant-Garde Jazz, Free Improvisation, Discus
Носитель: CD
Страна-производитель диска: UK
Год издания: 2008
Издатель (лейбл): Discus Records
Номер по каталогу: Discus 34CD
Страна исполнителя (группы): UK
Аудиокодек: FLAC (*.flac)
Тип рипа: tracks+.cue
Битрейт аудио: lossless
Продолжительность: 54:33
Источник (релизер): свой фирменный диск
Наличие сканов в содержимом раздачи:
Треклист:
1. Geese (Trio)
2. You'll Wake The Children (Trio)
3. Weather Report (solo by Mick Beck)
4. Term Time (solo by Alex Ward)
5. Half Drawn Eye (solo by Chris Cundy)
6. Sheep (Trio)
 
Лог создания рипа
Exact Audio Copy V1.0 beta 3 from 29. August 2011
EAC extraction logfile from 28. August 2014, 20:02
Weavels / At The Nether Edge
Used drive : PIONEER DVD-RW DVR-115D Adapter: 0 ID: 0
Read mode : Secure
Utilize accurate stream : Yes
Defeat audio cache : Yes
Make use of C2 pointers : No
Read offset correction : 48
Overread into Lead-In and Lead-Out : No
Fill up missing offset samples with silence : Yes
Delete leading and trailing silent blocks : No
Null samples used in CRC calculations : Yes
Used interface : Installed external ASPI interface
Gap handling : Appended to previous track
Used output format : User Defined Encoder
Selected bitrate : 1024 kBit/s
Quality : High
Add ID3 tag : No
Command line compressor : C:\Program Files\Exact Audio Copy\Flac\flac.exe
Additional command line options : -6 -V -T "ARTIST=%artist%" -T "TITLE=%title%" -T "ALBUM=%albumtitle%" -T "DATE=%year%" -T "TRACKNUMBER=%tracknr%" -T "GENRE=%genre%" -T "COMMENT=%comment%" -T "BAND=%albuminterpret%" -T "COMPOSER=%composer%" %haslyrics%--tag-from-file=LYRICS="%lyricsfile%"%haslyrics% -T "DISCNUMBER=%cdnumber%" -T "TOTALDISCS=%totalcds%" -T "TOTALTRACKS=%numtracks%" %hascover%--picture="%coverfile%"%hascover% %source% -o %dest%
TOC of the extracted CD
Track | Start | Length | Start sector | End sector
---------------------------------------------------------
1 | 0:00.00 | 14:32.16 | 0 | 65415
2 | 14:32.16 | 7:53.34 | 65416 | 100924
3 | 22:25.50 | 6:20.37 | 100925 | 129461
4 | 28:46.12 | 6:14.74 | 129462 | 157585
5 | 35:01.11 | 7:02.43 | 157586 | 189278
6 | 42:03.54 | 12:29.07 | 189279 | 245460
Track 1
Filename D:\zzz\01 - Geese.wav
Pre-gap length 0:00:02.00
Peak level 90.2 %
Extraction speed 5.3 X
Track quality 100.0 %
Test CRC 4D804D22
Copy CRC 4D804D22
Track not present in AccurateRip database
Copy OK
Track 2
Filename D:\zzz\02 - You'll Wake The Children.wav
Pre-gap length 0:00:09.00
Peak level 83.4 %
Extraction speed 6.2 X
Track quality 100.0 %
Test CRC B7637E6A
Copy CRC B7637E6A
Track not present in AccurateRip database
Copy OK
Track 3
Filename D:\zzz\03 - Weather Report.wav
Pre-gap length 0:00:09.00
Peak level 99.8 %
Extraction speed 6.6 X
Track quality 100.0 %
Test CRC EC512C35
Copy CRC EC512C35
Track not present in AccurateRip database
Copy OK
Track 4
Filename D:\zzz\04 - Term Time.wav
Pre-gap length 0:00:05.00
Peak level 68.6 %
Extraction speed 7.1 X
Track quality 100.0 %
Test CRC 9C440826
Copy CRC 9C440826
Track not present in AccurateRip database
Copy OK
Track 5
Filename D:\zzz\05 - Half Drawn Eye.wav
Pre-gap length 0:00:05.00
Peak level 99.5 %
Extraction speed 7.5 X
Track quality 100.0 %
Test CRC 11D57C00
Copy CRC 11D57C00
Track not present in AccurateRip database
Copy OK
Track 6
Filename D:\zzz\06 - Sheep.wav
Pre-gap length 0:00:09.00
Peak level 91.2 %
Extraction speed 8.4 X
Track quality 100.0 %
Test CRC 442B4AFB
Copy CRC 442B4AFB
Track not present in AccurateRip database
Copy OK
None of the tracks are present in the AccurateRip database
No errors occurred
End of status report
==== Log checksum 57FAEFFFBFF73DB1E203941E35F76C8A4D282E8D7FC5EC4C0D2861A93DC7DC4A ====
 
Содержание индексной карты (.CUE)
REM GENRE "Free Improvisation"
REM DATE 2008
REM DISCID 4A0CC806
REM COMMENT "ExactAudioCopy v1.0b3"
PERFORMER "Weavels"
TITLE "At The Nether Edge"
FILE "01 - Geese.wav" WAVE
TRACK 01 AUDIO
TITLE "Geese"
PERFORMER "Weavels"
FLAGS DCP
INDEX 01 00:00:00
TRACK 02 AUDIO
TITLE "You'll Wake The Children"
PERFORMER "Weavels"
FLAGS DCP
INDEX 00 14:23:16
FILE "02 - You'll Wake The Children.wav" WAVE
INDEX 01 00:00:00
TRACK 03 AUDIO
TITLE "Weather Report"
PERFORMER "Weavels"
FLAGS DCP
INDEX 00 07:44:34
FILE "03 - Weather Report.wav" WAVE
INDEX 01 00:00:00
TRACK 04 AUDIO
TITLE "Term Time"
PERFORMER "Weavels"
FLAGS DCP
INDEX 00 06:15:37
FILE "04 - Term Time.wav" WAVE
INDEX 01 00:00:00
TRACK 05 AUDIO
TITLE "Half Drawn Eye"
PERFORMER "Weavels"
FLAGS DCP
INDEX 00 06:09:74
FILE "05 - Half Drawn Eye.wav" WAVE
INDEX 01 00:00:00
TRACK 06 AUDIO
TITLE "Sheep"
PERFORMER "Weavels"
FLAGS DCP
INDEX 00 06:53:43
FILE "06 - Sheep.wav" WAVE
INDEX 01 00:00:00
 
Лог проверки качества
d:\>d:\aucdtect -d/-m0 d:\zzz\*.wav
auCDtect: CD records authenticity detector, version 0.8.2
Copyright (c) 2004 Oleg Berngardt. All rights reserved.
Copyright (c) 2004 Alexander Djourik. All rights reserved.
------------------------------------------------------------
Processing file: [01. Geese.wav]
------------------------------------------------------------
This track looks like CDDA with probability 100%
------------------------------------------------------------
Processing file: [02. You'll Wake The Children.wav]
------------------------------------------------------------
This track looks like CDDA with probability 100%
------------------------------------------------------------
Processing file: [03. Weather Report.wav]
------------------------------------------------------------
This track looks like CDDA with probability 100%
------------------------------------------------------------
Processing file: [04. Term Time.wav]
------------------------------------------------------------
This track looks like CDDA with probability 100%
------------------------------------------------------------
Processing file: [05. Half Drawn Eye.wav]
------------------------------------------------------------
This track looks like CDDA with probability 100%
------------------------------------------------------------
Processing file: [06. Sheep.wav]
------------------------------------------------------------
This track looks like CDDA with probability 99%
------------------------------------------------------------
Final Conclusion:
------------------------------------------------------------
These tracks looks like CDDA with probability 100%
Доп. информация:
 
Album Info & Review
The trio tracks were recorded live by Chris Trent at the Nether Edge Club Sheffield on 7 April 2007. These have been supplemented by solos from each member of the group recorded variously by Tim Fletcher (3), Alex Ward (4) and John Bisset at 2:13 Music (5)
The disc master was produced by Alex Ward.
Preparation of copy master by Ian Stead.
'Glasgow Diamonds' ink on paper by Chris Cundy (C)2008
Layout by Ben Adey Design
Thanks also go to Discus, Marie Deans and Jon Andriessen.
On At Nether Edge (DISCUS 34CD), you can hear the assorted atonal free-improv whoops and bleats of UK players Chris Cundy, lex Ward and Mick Beck, calling themselves Weavels for this outing. Alex Ward usually plays clarinet I think, but here he opts for amplified guitar work with a very slight avant-rock inflection, and leaves the woodwinds to Cundy, while Beck plays a very craggy-sounding bassoon. Each performer is allotted a solo cut to showcase their skills, but the CD really only works for me on the trio pieces – especially the farmyard-themed ‘Geese’ and ‘Sheep’ cuts. On the latter, they sound like a particularly worried flock of woolly bullies. - SOUND PROJECTOR
 
Состав
Chris Cundy: bass clarinet
Alex Ward: guitar
Mick Beck: bassoon and a variety of whistles
По всем вопросам пишите личное сообщение пользователю M0p94ok.
05:21
171
Нет комментариев. Ваш будет первым!