Поиск

(Spiritual Jazz; Improvised Music) Pharoah Sanders - Oh Lord, Let Me Do No Wrong - 1989, APE (image+.cue), lossless

(Spiritual Jazz; Improvised Music) Pharoah Sanders - Oh Lord, Let Me Do No Wrong - 1989, APE (image+.cue), lossless
Треклист:
Pharoah Sanders - Oh Lord, Let Me Do No Wrong
Жанр: Spiritual Jazz; Improvised Music
Год выпуска диска: 1989
Производитель диска: CBS Records, USA
Аудио кодек: APE
Тип рипа: image+.cue
Битрейт аудио: lossless
Продолжительность: 43:42
Трэклист:
1. Oh Lord, Let Me Do No Wrong
2. Equinox
3. Polka Dots and Moonbeams
4. If It Wasn't for a Woman
5. Clear Out of This World
6. Next Time You See Me
 
EAC LOG
Exact Audio Copy V0.99 prebeta 4 from 23. January 2008
Отчёт EAC об извлечении, выполненном 24. января 2010, 15:23
Pharoah Sanders / Oh Lord Let Me Do No Wrong
Дисковод: TSSTcorpCDDVDW SH-S203D Adapter: 3 ID: 0
Режим чтения : Достоверность
Использование точного потока : Да
Отключение кэша аудио : Да
Использование указателей C2 : Нет
Коррекция смещения при чтении : 6
Способность читать области Lead-in и Lead-out : Нет
Заполнение пропущенных сэмплов тишиной : Да
Удаление блоков с тишиной в начале и конце : Нет
При вычислениях CRC использовались нулевые сэмплы : Да
Интерфейс : Установленный внешний ASPI-интерфейс
Выходной формат : Внутренние WAV-операции
Формат сэмплов : 44.100 Гц; 16 бит; стерео
TOC извлечённого CD
Трек | Старт | Длительность | Начальный сектор | Конечный сектор
---------------------------------------------------------------------
1 | 0:00.00 | 5:35.05 | 0 | 25129
2 | 5:35.05 | 9:24.60 | 25130 | 67489
3 | 14:59.65 | 6:14.22 | 67490 | 95561
4 | 21:14.12 | 4:41.15 | 95562 | 116651
5 | 25:55.27 | 13:56.60 | 116652 | 179411
6 | 39:52.12 | 3:52.14 | 179412 | 196825
Характеристики диапазона извлечения и сообщения об ошибках
Выбранный диапазон
Имя файла E:\FOS\MISIC\SANDERS Ph\Pharoah Sanders - Oh Lord Let Me Do No Wrong\Pharoah Sanders - Oh Lord Let Me Do No Wrong - 1989.wav
Пиковый уровень 99.9 %
Качество диапазона 100.0 %
CRC копии 80FCF7B7
Копирование... OK
Ошибок не произошло
Конец отчёта
По всем вопросам пишите личное сообщение пользователю M0p94ok.
18:32
121
Нет комментариев. Ваш будет первым!