Поиск

(Soul) VA - Soul Collection (Sex Machine) - Unknown, FLAC (tracks+.cue), lossless

(Soul) VA - Soul Collection (Sex Machine) - Unknown, FLAC (tracks+.cue), lossless
Треклист:
Soul Collection (Sex Machine)
Жанр: Soul
Страна-производитель диска (релиза): Spain
Год издания: Unknown
Издатель (лейбл): Starlife
Номер по каталогу: 44007
Аудиокодек: FLAC (*.flac)
Тип рипа: tracks+.cue
Битрейт аудио: lossless
Продолжительность: 0:51:20.
Источник (релизер): clustert
Наличие сканов в содержимом раздачи: да
Треклист:
01. Sam and Dave / Hold On, I'm Coming [0:02:53.05]
02. Al Jarreau / Use Me (Till You Use Me up [0:03:51.00]
03. George McCrae / Rock Your Baby [0:03:36.14]
04. The Three Degrees / When Will I See You Again [0:03:08.47]
05. James Brown / Sex Machine [0:03:56.29]
06. R.B. Graves / Take A Letter Maria [0:02:39.37]
07. The Temptations / Cloude Nine [0:03:46.41]
08. Carol Douglas / Doctor's Orders [0:02:45.08]
09. Aaron Neville / Tell It Like It Is [0:03:06.52]
10. Syreeta / With You I Am Born Again [0:03:22.06]
11. Martha Reeves / Dancing In The Streets [0:03:20.47]
12. Lou Rawls / Lady Love [0:03:47.69]
13. Betty Everett / It's In His Kiss [0:02:21.65]
14. Jimmy Caster Bunch / The Bertha Butt Boogie [0:03:21.63]
15. Ike and Tina Turner / Nutbrush City Limits [0:02:58.34]
16. The Chi-Lites / I Found Sunshine [0:02:24.26]
 
Лог создания рипа
Exact Audio Copy V1.0 beta 3 from 29. August 2011
Отчёт EAC об извлечении, выполненном 12. июня 2015, 17:21
VA / Soul Collection (Sex Machine)
Дисковод: ASUS DRW-1814BLT Adapter: 4 ID: 0
Режим чтения : Достоверность
Использование точного потока : Да
Отключение кэша аудио : Да
Использование указателей C2 : Нет
Коррекция смещения при чтении : 6
Способность читать области Lead-in и Lead-out : Нет
Заполнение пропущенных сэмплов тишиной : Да
Удаление блоков с тишиной в начале и конце : Нет
При вычислениях CRC использовались нулевые сэмплы : Да
Интерфейс : Встроенный Win32-интерфейс для Win NT/2000
Обработка зазоров : Добавлено к предыдущему треку
Выходной формат : Пользовательский кодировщик
Выбранный битрейт : 128 kBit/s
Качество : Высокий
Добавление ID3-тега : Нет
Утилита сжатия : C:\Program Files\Exact Audio Copy\Flac\flac.exe
Дополнительные параметры : -V -8 -T "Genre=%genre%" -T "Artist=%artist%" -T "Title=%title%" -T "Album=%albumtitle%" -T "Date=%year%" -T "Tracknumber=%tracknr%" -T "Comment=EAC1.0b2 FLAC -8" %source%
TOC извлечённого CD
Трек | Старт | Длительность | Начальный сектор | Конечный сектор
---------------------------------------------------------------------
1 | 0:00.00 | 2:53.05 | 0 | 12979
2 | 2:53.05 | 3:51.00 | 12980 | 30304
3 | 6:44.05 | 3:36.14 | 30305 | 46518
4 | 10:20.19 | 3:08.47 | 46519 | 60665
5 | 13:28.66 | 3:56.29 | 60666 | 78394
6 | 17:25.20 | 2:39.37 | 78395 | 90356
7 | 20:04.57 | 3:46.41 | 90357 | 107347
8 | 23:51.23 | 2:45.08 | 107348 | 119730
9 | 26:36.31 | 3:06.52 | 119731 | 133732
10 | 29:43.08 | 3:22.06 | 133733 | 148888
11 | 33:05.14 | 3:20.47 | 148889 | 163935
12 | 36:25.61 | 3:47.69 | 163936 | 181029
13 | 40:13.55 | 2:21.65 | 181030 | 191669
14 | 42:35.45 | 3:21.63 | 191670 | 206807
15 | 45:57.33 | 2:58.34 | 206808 | 220191
16 | 48:55.67 | 2:24.26 | 220192 | 231017
Трек 1
Имя файла R:\Раздача 48\VA - Soul Collection - Sex Machine\01 Hold On, I'm Coming.wav
Длина предзазора 0:00:02.00
Пиковый уровень 92.0 %
Скорость извлечения 4.7 X
Качество трека 100.0 %
CRC теста E6036C7B
CRC копии E6036C7B
Трек не обнаружен в базе AccurateRip
Копирование... OK
Трек 2
Имя файла R:\Раздача 48\VA - Soul Collection - Sex Machine\02 Use Me (Till You Use Me up.wav
Длина предзазора 0:00:01.00
Пиковый уровень 92.0 %
Скорость извлечения 5.4 X
Качество трека 100.0 %
CRC теста 72397F7C
CRC копии 72397F7C
Трек не обнаружен в базе AccurateRip
Копирование... OK
Трек 3
Имя файла R:\Раздача 48\VA - Soul Collection - Sex Machine\03 Rock Your Baby.wav
Длина предзазора 0:00:01.00
Пиковый уровень 92.0 %
Скорость извлечения 5.8 X
Качество трека 100.0 %
CRC теста 7B6B537A
CRC копии 7B6B537A
Трек не обнаружен в базе AccurateRip
Копирование... OK
Трек 4
Имя файла R:\Раздача 48\VA - Soul Collection - Sex Machine\04 When Will I See You Again.wav
Длина предзазора 0:00:01.00
Пиковый уровень 92.0 %
Скорость извлечения 6.1 X
Качество трека 100.0 %
CRC теста 853CC22D
CRC копии 853CC22D
Трек не обнаружен в базе AccurateRip
Копирование... OK
Трек 5
Имя файла R:\Раздача 48\VA - Soul Collection - Sex Machine\05 Sex Machine.wav
Длина предзазора 0:00:01.00
Пиковый уровень 92.0 %
Скорость извлечения 5.0 X
Качество трека 99.9 %
CRC теста 83EC14AE
CRC копии 83EC14AE
Трек не обнаружен в базе AccurateRip
Копирование... OK
Трек 6
Имя файла R:\Раздача 48\VA - Soul Collection - Sex Machine\06 Take A Letter Maria.wav
Длина предзазора 0:00:01.00
Пиковый уровень 92.0 %
Скорость извлечения 5.6 X
Качество трека 100.0 %
CRC теста DCB2B278
CRC копии DCB2B278
Трек не обнаружен в базе AccurateRip
Копирование... OK
Трек 7
Имя файла R:\Раздача 48\VA - Soul Collection - Sex Machine\07 Cloude Nine.wav
Длина предзазора 0:00:01.00
Пиковый уровень 92.0 %
Скорость извлечения 7.2 X
Качество трека 100.0 %
CRC теста 0FA29AA4
CRC копии 0FA29AA4
Трек не обнаружен в базе AccurateRip
Копирование... OK
Трек 8
Имя файла R:\Раздача 48\VA - Soul Collection - Sex Machine\08 Doctor's Orders.wav
Длина предзазора 0:00:01.00
Пиковый уровень 92.0 %
Скорость извлечения 7.1 X
Качество трека 100.0 %
CRC теста 0F59C543
CRC копии 0F59C543
Трек не обнаружен в базе AccurateRip
Копирование... OK
Трек 9
Имя файла R:\Раздача 48\VA - Soul Collection - Sex Machine\09 Tell It Like It Is.wav
Длина предзазора 0:00:01.00
Пиковый уровень 92.0 %
Скорость извлечения 7.5 X
Качество трека 100.0 %
CRC теста 6E1ACED7
CRC копии 6E1ACED7
Трек не обнаружен в базе AccurateRip
Копирование... OK
Трек 10
Имя файла R:\Раздача 48\VA - Soul Collection - Sex Machine\10 With You I Am Born Again.wav
Длина предзазора 0:00:01.00
Пиковый уровень 92.0 %
Скорость извлечения 7.9 X
Качество трека 100.0 %
CRC теста C9626F93
CRC копии C9626F93
Трек не обнаружен в базе AccurateRip
Копирование... OK
Трек 11
Имя файла R:\Раздача 48\VA - Soul Collection - Sex Machine\11 Dancing In The Streets.wav
Длина предзазора 0:00:01.00
Пиковый уровень 92.0 %
Скорость извлечения 8.1 X
Качество трека 100.0 %
CRC теста E8600C5C
CRC копии E8600C5C
Трек не обнаружен в базе AccurateRip
Копирование... OK
Трек 12
Имя файла R:\Раздача 48\VA - Soul Collection - Sex Machine\12 Lady Love.wav
Длина предзазора 0:00:01.00
Пиковый уровень 92.0 %
Скорость извлечения 8.5 X
Качество трека 100.0 %
CRC теста 4B19C907
CRC копии 4B19C907
Трек не обнаружен в базе AccurateRip
Копирование... OK
Трек 13
Имя файла R:\Раздача 48\VA - Soul Collection - Sex Machine\13 It's In His Kiss.wav
Длина предзазора 0:00:01.00
Пиковый уровень 92.0 %
Скорость извлечения 8.0 X
Качество трека 100.0 %
CRC теста 835BAD00
CRC копии 835BAD00
Трек не обнаружен в базе AccurateRip
Копирование... OK
Трек 14
Имя файла R:\Раздача 48\VA - Soul Collection - Sex Machine\14 The Bertha Butt Boogie.wav
Длина предзазора 0:00:01.00
Пиковый уровень 92.0 %
Скорость извлечения 6.5 X
Качество трека 99.9 %
CRC теста 585FC7DC
CRC копии 585FC7DC
Трек не обнаружен в базе AccurateRip
Копирование... OK
Трек 15
Имя файла R:\Раздача 48\VA - Soul Collection - Sex Machine\15 Nutbrush City Limits.wav
Длина предзазора 0:00:01.00
Пиковый уровень 92.0 %
Скорость извлечения 7.6 X
Качество трека 100.0 %
CRC теста 93AD1073
CRC копии 93AD1073
Трек не обнаружен в базе AccurateRip
Копирование... OK
Трек 16
Имя файла R:\Раздача 48\VA - Soul Collection - Sex Machine\16 I Found Sunshine.wav
Длина предзазора 0:00:01.00
Пиковый уровень 92.0 %
Скорость извлечения 8.6 X
Качество трека 100.0 %
CRC теста 29DE52CA
CRC копии 29DE52CA
Трек не обнаружен в базе AccurateRip
Копирование... OK
Ни одного трека нет в базе AccurateRip
Ошибок не произошло
Конец отчёта
==== Контрольная сумма отчёта DCB9DE630708CD12B99B378A67248C5E3CFB5C26FD5DC1BEE19D288508C8DA60 ====
 
Содержание индексной карты (.CUE)
REM GENRE Soul
REM DISCID EE0C0810
REM COMMENT "ExactAudioCopy v1.0b3"
PERFORMER "VA"
TITLE "Soul Collection (Sex Machine)"
FILE "01 Hold On, I'm Coming.wav" WAVE
TRACK 01 AUDIO
TITLE "Hold On, I'm Coming"
PERFORMER "Sam and Dave"
INDEX 01 00:00:00
TRACK 02 AUDIO
TITLE "Use Me (Till You Use Me up"
PERFORMER "Al Jarreau"
INDEX 00 02:52:05
FILE "02 Use Me (Till You Use Me up.wav" WAVE
INDEX 01 00:00:00
TRACK 03 AUDIO
TITLE "Rock Your Baby"
PERFORMER "George McCrae"
INDEX 00 03:50:00
FILE "03 Rock Your Baby.wav" WAVE
INDEX 01 00:00:00
TRACK 04 AUDIO
TITLE "When Will I See You Again"
PERFORMER "The Three Degrees"
INDEX 00 03:35:14
FILE "04 When Will I See You Again.wav" WAVE
INDEX 01 00:00:00
TRACK 05 AUDIO
TITLE "Sex Machine"
PERFORMER "James Brown"
INDEX 00 03:07:47
FILE "05 Sex Machine.wav" WAVE
INDEX 01 00:00:00
TRACK 06 AUDIO
TITLE "Take A Letter Maria"
PERFORMER "R.B. Graves"
INDEX 00 03:55:29
FILE "06 Take A Letter Maria.wav" WAVE
INDEX 01 00:00:00
TRACK 07 AUDIO
TITLE "Cloude Nine"
PERFORMER "The Temptations"
INDEX 00 02:38:37
FILE "07 Cloude Nine.wav" WAVE
INDEX 01 00:00:00
TRACK 08 AUDIO
TITLE "Doctor's Orders"
PERFORMER "Carol Douglas"
INDEX 00 03:45:41
FILE "08 Doctor's Orders.wav" WAVE
INDEX 01 00:00:00
TRACK 09 AUDIO
TITLE "Tell It Like It Is"
PERFORMER "Aaron Neville"
INDEX 00 02:44:08
FILE "09 Tell It Like It Is.wav" WAVE
INDEX 01 00:00:00
TRACK 10 AUDIO
TITLE "With You I Am Born Again"
PERFORMER "Syreeta"
INDEX 00 03:05:52
FILE "10 With You I Am Born Again.wav" WAVE
INDEX 01 00:00:00
TRACK 11 AUDIO
TITLE "Dancing In The Streets"
PERFORMER "Martha Reeves"
INDEX 00 03:21:06
FILE "11 Dancing In The Streets.wav" WAVE
INDEX 01 00:00:00
TRACK 12 AUDIO
TITLE "Lady Love"
PERFORMER "Lou Rawls"
INDEX 00 03:19:47
FILE "12 Lady Love.wav" WAVE
INDEX 01 00:00:00
TRACK 13 AUDIO
TITLE "It's In His Kiss"
PERFORMER "Betty Everett"
INDEX 00 03:46:69
FILE "13 It's In His Kiss.wav" WAVE
INDEX 01 00:00:00
TRACK 14 AUDIO
TITLE "The Bertha Butt Boogie"
PERFORMER "Jimmy Caster Bunch"
INDEX 00 02:20:65
FILE "14 The Bertha Butt Boogie.wav" WAVE
INDEX 01 00:00:00
TRACK 15 AUDIO
TITLE "Nutbrush City Limits"
PERFORMER "Ike and Tina Turner"
INDEX 00 03:20:63
FILE "15 Nutbrush City Limits.wav" WAVE
INDEX 01 00:00:00
TRACK 16 AUDIO
TITLE "I Found Sunshine"
PERFORMER "The Chi-Lites"
INDEX 00 02:57:34
FILE "16 I Found Sunshine.wav" WAVE
INDEX 01 00:00:00
Приватный:
Нет (DHT включён)
Размер:
333.78 Мб (349,993,378 байт) » файлов: 24
Участники:
0 раздают, 0 качают (0 участников всего)
Внешние участники:
1 раздают, 0 качают (1 участников всего) [ Обновить ]
Есть вопросы - пишите личное сообщение пользователю M0p94ok.
06:53
52
Нет комментариев. Ваш будет первым!