Поиск

(Soul) [CD] VA - Motowns Greatest Artists: The Most-Played Oldies On America's JukeBoxes - 1987, FLAC (tracks+.cue), lossless

(Soul) [CD] VA - Motowns Greatest Artists: The Most-Played Oldies On America's JukeBoxes - 1987, FLAC (tracks+.cue), lossless
Треклист:
Various - Motowns Greatest Artists: The Most-Played Oldies On America's JukeBoxes Жанр: Soul
Носитель: CD
Год издания: 1987
Издатель (лейбл): Motown
Номер по каталогу: WD 72601
Аудиокодек: FLAC (*.flac)
Тип рипа: tracks+.cue
Битрейт аудио: lossless
Продолжительность: 48:52
Rip by JET 1
Наличие сканов в содержимом раздачи: да
Треклист:
01. I Heard It Through The Grapevine (Gladys Knight & The Pips) (2:48)
02. Please, Mr. Postman (The Marvelettes) (2:29)
03. Ooo Baby Baby (Smokey Robinson & The Miracles) (2:48)
04. The Tracks Of My Tears (Smokey Robinson & The Miracles) (2:56)
05. The Tears Of A Clown (Smokey Robinson & The Miracles) (3:01)
06. My Guy (Mary Wells) (2:54)
07. Where Did Our Love Go (Diana Ross & The Supremes) (2:34)
08. Baby Love (Diana Ross & The Supremes) (2:39)
09. Baby I Need Your Lovin' (The Four Tops) (2:47)
10. I Can't Help Myself (Sugar Pie, Honey Bunch) (The Four Tops) (2:43)
11. Stop! In The Name Of Love (Diana Ross & The Supremes) (2:54)
12. Reach Out I'll Be There (The Four Tops) (3:01)
13. Someday We'll Be Together (Diana Ross & The Supremes) (3:31)
14. Reach Out And Touch (Somebody's Hand) (Diana Ross) (3:06)
15. My Girl (The Temptations) (2:44)
16. Get Ready (The Temptations) (2:40)
17. I Heard It Through The Grapevine (Marvin Gaye) (3:16)
 
 
Лог создания рипа
Exact Audio Copy V1.0 beta 3 from 29. August 2011
EAC extraction logfile from 13. July 2015, 18:37
Motowns Greatest Artists / The Most-Played Oldies On America's Jukeboxes
Used drive : GENERIC CDRCB05 Adapter: 4 ID: 0
Read mode : Secure
Utilize accurate stream : Yes
Defeat audio cache : Yes
Make use of C2 pointers : No
Read offset correction : 102
Overread into Lead-In and Lead-Out : No
Fill up missing offset samples with silence : Yes
Delete leading and trailing silent blocks : No
Null samples used in CRC calculations : Yes
Used interface : Native Win32 interface for Win NT & 2000
Gap handling : Appended to previous track
Used output format : User Defined Encoder
Selected bitrate : 1024 kBit/s
Quality : High
Add ID3 tag : No
Command line compressor : C:\Program Files\FLAC\flac.exe
Additional command line options : -8 -V -T "ARTIST=%artist%" -T "TITLE=%title%" -T "ALBUM=%albumtitle%" -T "DATE=%year%" -T "TRACKNUMBER=%tracknr%" -T "GENRE=%genre%" -T "PERFORMER=%albuminterpret%" -T "COMPOSER=%composer%" %haslyrics%--tag-from-file=LYRICS="%lyricsfile%"%haslyrics% -T "ALBUMARTIST=%albumartist%" -T "DISCNUMBER=%cdnumber%" -T "TOTALDISCS=%totalcds%" -T "TOTALTRACKS=%numtracks%" -T "COMMENT=%comment%" %source% -o %dest%
TOC of the extracted CD
Track | Start | Length | Start sector | End sector
---------------------------------------------------------
1 | 0:00.00 | 2:47.58 | 0 | 12582
2 | 2:47.58 | 2:29.15 | 12583 | 23772
3 | 5:16.73 | 2:47.55 | 23773 | 36352
4 | 8:04.53 | 2:56.27 | 36353 | 49579
5 | 11:01.05 | 3:01.05 | 49580 | 63159
6 | 14:02.10 | 2:53.43 | 63160 | 76177
7 | 16:55.53 | 2:34.07 | 76178 | 87734
8 | 19:29.60 | 2:38.58 | 87735 | 99642
9 | 22:08.43 | 2:47.02 | 99643 | 112169
10 | 24:55.45 | 2:43.08 | 112170 | 124402
11 | 27:38.53 | 2:54.30 | 124403 | 137482
12 | 30:33.08 | 3:01.37 | 137483 | 151094
13 | 33:34.45 | 3:30.43 | 151095 | 166887
14 | 37:05.13 | 3:06.35 | 166888 | 180872
15 | 40:11.48 | 2:44.25 | 180873 | 193197
16 | 42:55.73 | 2:40.37 | 193198 | 205234
17 | 45:36.35 | 3:15.58 | 205235 | 219917
Track 1
Filename G:\MUSIC\0\POSTS\Most Played Oldies On America's JukeBoxes {Motown}\01 - Gladys Knight & The Pips - I Heard It Through The Grapevine.wav
Pre-gap length 0:00:02.00
Peak level 76.8 %
Extraction speed 2.2 X
Track quality 100.0 %
Test CRC 949A6685
Copy CRC 949A6685
Accurately ripped (confidence 2) [3FE4FBA0] (AR v2)
Copy OK
Track 2
Filename G:\MUSIC\0\POSTS\Most Played Oldies On America's JukeBoxes {Motown}\02 - The Marvelettes - Please, Mr Postman.wav
Pre-gap length 0:00:01.45
Peak level 85.8 %
Extraction speed 2.2 X
Track quality 100.0 %
Test CRC F3D42D2D
Copy CRC F3D42D2D
Accurately ripped (confidence 2) [1469C7E9] (AR v2)
Copy OK
Track 3
Filename G:\MUSIC\0\POSTS\Most Played Oldies On America's JukeBoxes {Motown}\03 - Smokey Robinson & The Miracles - OOO Baby Baby.wav
Pre-gap length 0:00:02.28
Peak level 52.5 %
Extraction speed 2.5 X
Track quality 100.0 %
Test CRC D3F85966
Copy CRC D3F85966
Accurately ripped (confidence 2) [75304202] (AR v2)
Copy OK
Track 4
Filename G:\MUSIC\0\POSTS\Most Played Oldies On America's JukeBoxes {Motown}\04 - Smokey Robinson & The Miracles - The Tracks Of My Tears.wav
Pre-gap length 0:00:02.05
Peak level 79.5 %
Extraction speed 2.6 X
Track quality 100.0 %
Test CRC 0E851753
Copy CRC 0E851753
Accurately ripped (confidence 2) [4A8E9E92] (AR v2)
Copy OK
Track 5
Filename G:\MUSIC\0\POSTS\Most Played Oldies On America's JukeBoxes {Motown}\05 - Smokey Robinson & The Miracles - The Tears Of A Clown.wav
Pre-gap length 0:00:01.58
Peak level 100.0 %
Extraction speed 2.8 X
Track quality 100.0 %
Test CRC 42DC3053
Copy CRC 42DC3053
Accurately ripped (confidence 2) [D3F2530C] (AR v2)
Copy OK
Track 6
Filename G:\MUSIC\0\POSTS\Most Played Oldies On America's JukeBoxes {Motown}\06 - Mary Wells - My Guy.wav
Pre-gap length 0:00:01.40
Peak level 70.4 %
Extraction speed 2.9 X
Track quality 100.0 %
Test CRC 9A496D69
Copy CRC 9A496D69
Accurately ripped (confidence 2) [92BA2DC1] (AR v2)
Copy OK
Track 7
Filename G:\MUSIC\0\POSTS\Most Played Oldies On America's JukeBoxes {Motown}\07 - Diana Ross & The Supremes - Where Did Our Love Go.wav
Pre-gap length 0:00:01.48
Peak level 65.2 %
Extraction speed 3.0 X
Track quality 100.0 %
Test CRC 5E1026C6
Copy CRC 5E1026C6
Accurately ripped (confidence 2) [0B8B82BE] (AR v2)
Copy OK
Track 8
Filename G:\MUSIC\0\POSTS\Most Played Oldies On America's JukeBoxes {Motown}\08 - Diana Ross & The Supremes - Baby Love.wav
Pre-gap length 0:00:01.52
Peak level 80.1 %
Extraction speed 3.1 X
Track quality 100.0 %
Test CRC 05C48F0D
Copy CRC 05C48F0D
Accurately ripped (confidence 2) [2D2A01C1] (AR v2)
Copy OK
Track 9
Filename G:\MUSIC\0\POSTS\Most Played Oldies On America's JukeBoxes {Motown}\09 - The Four Tops - Baby I Need Your Lovin'.wav
Pre-gap length 0:00:02.03
Peak level 75.3 %
Extraction speed 3.2 X
Track quality 100.0 %
Test CRC 89D953A5
Copy CRC 89D953A5
Accurately ripped (confidence 2) [7EC54046] (AR v2)
Copy OK
Track 10
Filename G:\MUSIC\0\POSTS\Most Played Oldies On America's JukeBoxes {Motown}\10 - The Four Tops - I Can't Help Myself (Sugar Pie, Honey Bunch).wav
Pre-gap length 0:00:01.48
Peak level 68.8 %
Extraction speed 3.3 X
Track quality 100.0 %
Test CRC 88978893
Copy CRC 88978893
Accurately ripped (confidence 2) [998BDA69] (AR v2)
Copy OK
Track 11
Filename G:\MUSIC\0\POSTS\Most Played Oldies On America's JukeBoxes {Motown}\11 - Diana Ross & The Supremes - Stop! In The Name Of Love.wav
Pre-gap length 0:00:01.58
Peak level 79.6 %
Extraction speed 3.5 X
Track quality 100.0 %
Test CRC E58E6324
Copy CRC E58E6324
Accurately ripped (confidence 2) [FD530049] (AR v2)
Copy OK
Track 12
Filename G:\MUSIC\0\POSTS\Most Played Oldies On America's JukeBoxes {Motown}\12 - The Four Tops - Reach Out I'll Be There.wav
Pre-gap length 0:00:01.50
Peak level 62.3 %
Extraction speed 3.6 X
Track quality 100.0 %
Test CRC F020302E
Copy CRC F020302E
Accurately ripped (confidence 2) [12CA2DF9] (AR v2)
Copy OK
Track 13
Filename G:\MUSIC\0\POSTS\Most Played Oldies On America's JukeBoxes {Motown}\13 - Diana Ross & The Supremes - Someday We'll Be Together.wav
Pre-gap length 0:00:02.30
Peak level 66.4 %
Extraction speed 3.9 X
Track quality 100.0 %
Test CRC 14C20495
Copy CRC 14C20495
Accurately ripped (confidence 2) [977ADFFC] (AR v2)
Copy OK
Track 14
Filename G:\MUSIC\0\POSTS\Most Played Oldies On America's JukeBoxes {Motown}\14 - Diana Ross - Reach Out And Touch (Somebody's Hand).wav
Pre-gap length 0:00:01.58
Peak level 81.2 %
Extraction speed 3.9 X
Track quality 100.0 %
Test CRC 34081312
Copy CRC 34081312
Accurately ripped (confidence 2) [2EB5FF69] (AR v2)
Copy OK
Track 15
Filename G:\MUSIC\0\POSTS\Most Played Oldies On America's JukeBoxes {Motown}\15 - The Temptations - My Girl.wav
Pre-gap length 0:00:01.28
Peak level 60.4 %
Extraction speed 3.3 X
Track quality 99.9 %
Test CRC 8984E558
Copy CRC 8984E558
Accurately ripped (confidence 2) [10AFE6EB] (AR v2)
Copy OK
Track 16
Filename G:\MUSIC\0\POSTS\Most Played Oldies On America's JukeBoxes {Motown}\16 - The Temptations - Get Ready.wav
Pre-gap length 0:00:01.55
Peak level 49.7 %
Extraction speed 3.9 X
Track quality 100.0 %
Test CRC 85262B78
Copy CRC 85262B78
Accurately ripped (confidence 2) [6C9BDF7A] (AR v2)
Copy OK
Track 17
Filename G:\MUSIC\0\POSTS\Most Played Oldies On America's JukeBoxes {Motown}\17 - Marvin Gaye - I Heard It Through The Grapevine.wav
Pre-gap length 0:00:01.45
Peak level 83.3 %
Extraction speed 4.2 X
Track quality 100.0 %
Test CRC F39BF189
Copy CRC F39BF189
Accurately ripped (confidence 2) [F768DA77] (AR v2)
Copy OK
All tracks accurately ripped
No errors occurred
End of status report
==== Log checksum 6ABC7CADEA66A1A17B6424F99CF673F8BB499A201D1B09F2D96D25F0ABD69472 ====
 
Содержание индексной карты (.CUE)
REM GENRE "60-tals rock"
REM DATE 1987
REM DISCID E50B7411
REM COMMENT "ExactAudioCopy v1.0b3"
PERFORMER "Various"
TITLE "The Most-Played Oldies On America's Jukeboxes"
FILE "01 - Gladys Knight & The Pips - I Heard It Through The Grapevine.wav" WAVE
TRACK 01 AUDIO
TITLE "I Heard It Through The Grapevine"
PERFORMER "Gladys Knight & The Pips"
INDEX 01 00:00:00
TRACK 02 AUDIO
TITLE "Please, Mr. Postman"
PERFORMER "The Marvelettes"
INDEX 00 02:46:13
FILE "02 - The Marvelettes - Please, Mr. Postman.wav" WAVE
INDEX 01 00:00:00
TRACK 03 AUDIO
TITLE "Ooo Baby Baby"
PERFORMER "Smokey Robinson & The Miracles"
INDEX 00 02:26:62
FILE "03 - Smokey Robinson & The Miracles - Ooo Baby Baby.wav" WAVE
INDEX 01 00:00:00
TRACK 04 AUDIO
TITLE "The Tracks Of My Tears"
PERFORMER "Smokey Robinson & The Miracles"
INDEX 00 02:45:50
FILE "04 - Smokey Robinson & The Miracles - The Tracks Of My Tears.wav" WAVE
INDEX 01 00:00:00
TRACK 05 AUDIO
TITLE "The Tears Of A Clown"
PERFORMER "Smokey Robinson & The Miracles"
INDEX 00 02:54:44
FILE "05 - Smokey Robinson & The Miracles - The Tears Of A Clown.wav" WAVE
INDEX 01 00:00:00
TRACK 06 AUDIO
TITLE "My Guy"
PERFORMER "Mary Wells"
INDEX 00 02:59:40
FILE "06 - Mary Wells - My Guy.wav" WAVE
INDEX 01 00:00:00
TRACK 07 AUDIO
TITLE "Where Did Our Love Go"
PERFORMER "Diana Ross & The Supremes"
INDEX 00 02:51:70
FILE "07 - Diana Ross & The Supremes - Where Did Our Love Go.wav" WAVE
INDEX 01 00:00:00
TRACK 08 AUDIO
TITLE "Baby Love"
PERFORMER "Diana Ross & The Supremes"
INDEX 00 02:32:30
FILE "08 - Diana Ross & The Supremes - Baby Love.wav" WAVE
INDEX 01 00:00:00
TRACK 09 AUDIO
TITLE "Baby I Need Your Lovin'"
PERFORMER "The Four Tops"
INDEX 00 02:36:55
FILE "09 - The Four Tops - Baby I Need Your Lovin'.wav" WAVE
INDEX 01 00:00:00
TRACK 10 AUDIO
TITLE "I Can't Help Myself (Sugar Pie, Honey Bunch)"
PERFORMER "The Four Tops"
INDEX 00 02:45:29
FILE "10 - The Four Tops - I Can't Help Myself (Sugar Pie, Honey Bunch).wav" WAVE
INDEX 01 00:00:00
TRACK 11 AUDIO
TITLE "Stop! In The Name Of Love"
PERFORMER "Diana Ross & The Supremes"
INDEX 00 02:41:25
FILE "11 - Diana Ross & The Supremes - Stop! In The Name Of Love.wav" WAVE
INDEX 01 00:00:00
TRACK 12 AUDIO
TITLE "Reach Out I'll Be There"
PERFORMER "The Four Tops"
INDEX 00 02:52:55
FILE "12 - The Four Tops - Reach Out I'll Be There.wav" WAVE
INDEX 01 00:00:00
TRACK 13 AUDIO
TITLE "Someday We'll Be Together"
PERFORMER "Diana Ross & The Supremes"
INDEX 00 02:59:07
FILE "13 - Diana Ross & The Supremes - Someday We'll Be Together.wav" WAVE
INDEX 01 00:00:00
TRACK 14 AUDIO
TITLE "Reach Out And Touch (Somebody's Hand)"
PERFORMER "Diana Ross"
INDEX 00 03:28:60
FILE "14 - Diana Ross - Reach Out And Touch (Somebody's Hand).wav" WAVE
INDEX 01 00:00:00
TRACK 15 AUDIO
TITLE "My Girl"
PERFORMER "The Temptations"
INDEX 00 03:05:07
FILE "15 - The Temptations - My Girl.wav" WAVE
INDEX 01 00:00:00
TRACK 16 AUDIO
TITLE "Get Ready"
PERFORMER "The Temptations"
INDEX 00 02:42:45
FILE "16 - The Temptations - Get Ready.wav" WAVE
INDEX 01 00:00:00
TRACK 17 AUDIO
TITLE "I Heard It Through The Grapevine"
PERFORMER "Marvin Gaye"
INDEX 00 02:38:67
FILE "17 - Marvin Gaye - I Heard It Through The Grapevine.wav" WAVE
INDEX 01 00:00:00
Приватный:
Нет (DHT включён)
Размер:
304.68 Мб (319,484,829 байт) » файлов: 25
Участники:
0 раздают, 0 качают (0 участников всего)
Внешние участники:
2 раздают, 1 качают (3 участников всего) [ Обновить ]
No seeders - write personal message to user M0p94ok. Нет сидеров - пишите личное сообщение пользователю M0p94ok.
07:10
58
Нет комментариев. Ваш будет первым!