Поиск

(Soul / Uptown Soul) [CD] Sam Cooke - At The Copa (live) (1964) - 2003, FLAC (image+.cue), lossless

(Soul / Uptown Soul) [CD] Sam Cooke - At The Copa (live) (1964) - 2003, FLAC (image+.cue), lossless
Треклист:
Sam Cooke – At The Copa (live) (1964)
Жанр: Soul / Uptown Soul
Носитель: CD
Страна-производитель диска (релиза): EU
Год издания: 2003
Издатель (лейбл): ABKCO
Номер по каталогу: 0602498074473
Страна исполнителя (группы): USA
Аудиокодек: FLAC (*.flac)
Тип рипа: image+.cue
Битрейт аудио: lossless
Продолжительность: 42:30
Источник (релизер): Од'Родр рип
Наличие сканов в содержимом раздачи: да
Треклист:
01. Opening Introduction 00:36
02. The Best Things In Life Are Free 01:32
03. Bill Bailey 02:51
04. Nobody Knows You When You're Down And Out 03:19
05. Frankie And Johnny 03:00
06. Medley: Try A Little Tenderness - (I Love You) For Sentimental Reasons - You Send Me 04:56
07. If I Had A Hammer (The Hammer Song) 06:25
08. When I Fall In Love 03:05
09. Twistin' The Night Away 05:04
10. Band Introduction 01:28
11. This Little Light Of Mine 03:36
12. Blowin' In The Wind 03:01
13. Tennessee Waltz 03:37
 
Лог создания рипа
Exact Audio Copy V1.0 beta 3 from 29. August 2011
Отчёт EAC об извлечении, выполненном 12. июля 2015, 17:40
Sam Cooke / At The Copa
Дисковод: ATAPI iHES108 2 Adapter: 3 ID: 1
Режим чтения : Достоверность
Использование точного потока : Да
Отключение кэша аудио : Да
Использование указателей C2 : Нет
Коррекция смещения при чтении : 6
Способность читать области Lead-in и Lead-out : Нет
Заполнение пропущенных сэмплов тишиной : Да
Удаление блоков с тишиной в начале и конце : Нет
При вычислениях CRC использовались нулевые сэмплы : Да
Интерфейс : Встроенный Win32-интерфейс для Win NT/2000
Выходной формат : Пользовательский кодировщик
Выбранный битрейт : 1024 kBit/s
Качество : Высокий
Добавление ID3-тега : Нет
Утилита сжатия : C:\Program Files\Exact Audio Copy\Flac\flac.exe
Дополнительные параметры : -V -8 -T "Date=%year%" -T "Genre=%genre%" %source%
TOC извлечённого CD
Трек | Старт | Длительность | Начальный сектор | Конечный сектор
---------------------------------------------------------------------
1 | 0:00.00 | 0:35.67 | 0 | 2691
2 | 0:35.67 | 1:31.65 | 2692 | 9581
3 | 2:07.57 | 2:50.60 | 9582 | 22391
4 | 4:58.42 | 3:18.70 | 22392 | 37311
5 | 8:17.37 | 3:00.10 | 37312 | 50821
6 | 11:17.47 | 4:55.48 | 50822 | 72994
7 | 16:13.20 | 6:25.17 | 72995 | 101886
8 | 22:38.37 | 3:05.13 | 101887 | 115774
9 | 25:43.50 | 5:04.30 | 115775 | 138604
10 | 30:48.05 | 1:27.62 | 138605 | 145191
11 | 32:15.67 | 3:36.15 | 145192 | 161406
12 | 35:52.07 | 3:01.35 | 161407 | 175016
13 | 38:53.42 | 3:36.67 | 175017 | 191283
Характеристики диапазона извлечения и сообщения об ошибках
Выбранный диапазон
Имя файла D:\EAC-FOLDER\Sam Cooke - At The Copa\Sam Cooke - At The Copa\Sam Cooke - At The Copa.wav
Пиковый уровень 99.8 %
Скорость извлечения 4.3 X
Качество диапазона 100.0 %
CRC теста B29D5CCA
CRC копии B29D5CCA
Копирование... OK
Ошибок не произошло
AccurateRip: сводка
Трек 1 : извлечено точно (доверие 3) [91A308F9] (AR v2)
Трек 2 : извлечено точно (доверие 3) [0B16002F] (AR v2)
Трек 3 : извлечено точно (доверие 3) [25681D4D] (AR v2)
Трек 4 : извлечено точно (доверие 3) [3ECE4833] (AR v2)
Трек 5 : извлечено точно (доверие 3) [B993EDAA] (AR v2)
Трек 6 : извлечено точно (доверие 3) [1F9CFA71] (AR v2)
Трек 7 : извлечено точно (доверие 3) [CA11DEBB] (AR v2)
Трек 8 : извлечено точно (доверие 3) [6FA3A823] (AR v2)
Трек 9 : извлечено точно (доверие 3) [330EFD2F] (AR v2)
Трек 10 : извлечено точно (доверие 3) [38DF4F69] (AR v2)
Трек 11 : извлечено точно (доверие 3) [8B4F4FF9] (AR v2)
Трек 12 : извлечено точно (доверие 3) [FC7060C5] (AR v2)
Трек 13 : извлечено точно (доверие 3) [2637260A] (AR v2)
Все треки извлечены точно
Конец отчёта
==== Контрольная сумма отчёта FB6C8E1D5AD32B07AEF044F14384613552DAAE7FCA360FA4AA153F6C23ADB677 ====
 
Содержание индексной карты (.CUE)
REM DISCID B009F60D
REM COMMENT "ExactAudioCopy v1.0b3"
PERFORMER "Sam Cooke"
TITLE "At The Copa"
FILE "Sam Cooke - At The Copa.flac" WAVE
TRACK 01 AUDIO
TITLE "Opening Introduction"
PERFORMER "Sam Cooke"
ISRC USA1:6420290
INDEX 01 00:00:00
TRACK 02 AUDIO
TITLE "The Best Things In Life Are Free"
PERFORMER "Sam Cooke"
ISRC USA1:6420140
INDEX 01 00:35:67
TRACK 03 AUDIO
TITLE "Bill Bailey"
PERFORMER "Sam Cooke"
ISRC USA1:6420150
INDEX 01 02:07:57
TRACK 04 AUDIO
TITLE "Nobody Knows You When You're Down And Out"
PERFORMER "Sam Cooke"
ISRC USA1:6420160
INDEX 01 04:58:42
TRACK 05 AUDIO
TITLE "Frankie And Johnny"
PERFORMER "Sam Cooke"
ISRC USA1:6420170
INDEX 01 08:17:37
TRACK 06 AUDIO
TITLE "Medley: Try A Little Tenderness - (I Love You) For Sentimental Reasons - You ..."
PERFORMER "Sam Cooke"
ISRC USA1:6420180
INDEX 01 11:17:47
TRACK 07 AUDIO
TITLE "If I Had A Hammer (The Hammer Song)"
PERFORMER "Sam Cooke"
ISRC USA1:6420230
INDEX 01 16:13:20
TRACK 08 AUDIO
TITLE "When I Fall In Love"
PERFORMER "Sam Cooke"
ISRC USA1:6420240
INDEX 01 22:38:37
TRACK 09 AUDIO
TITLE "Twistin' The Night Away"
PERFORMER "Sam Cooke"
ISRC USA1:6420250
INDEX 01 25:43:50
TRACK 10 AUDIO
TITLE "Band Introduction"
PERFORMER "Sam Cooke"
ISRC USA1:6420300
INDEX 01 30:48:05
TRACK 11 AUDIO
TITLE "This Little Light Of Mine"
PERFORMER "Sam Cooke"
ISRC USA1:6420260
INDEX 01 32:15:67
TRACK 12 AUDIO
TITLE "Blowin' In The Wind"
PERFORMER "Sam Cooke"
ISRC USA1:6420270
INDEX 01 35:52:07
TRACK 13 AUDIO
TITLE "Tennessee Waltz"
PERFORMER "Sam Cooke"
ISRC USA1:6420280
INDEX 01 38:53:42
Приватный:
Да (DHT отключён)
Размер:
350.65 Мб (367,678,223 байт) » файлов: 19
Участники:
0 раздают, 0 качают (0 участников всего)
Внешние участники:
1 раздают, 0 качают (1 участников всего) [ Обновить ]
No seeders - write a personal message to user M0p94ok. Нет сидеров - пишите личное сообщение пользователю M0p94ok.
07:02
85
Нет комментариев. Ваш будет первым!