Поиск

(Soul, R&B, Urban Groove) [CD] VA - Free Soul ~ 2010s Urban-Groove - 2014, FLAC (tracks+.cue), lossless

(Soul, R&B, Urban Groove) [CD] VA - Free Soul ~ 2010s Urban-Groove - 2014, FLAC (tracks+.cue), lossless
Треклист:
Various Artists - Free Soul ~ 2010s Urban-Groove Жанр: Soul, R&B, Urban Groove
Носитель: CD
Страна-производитель диска (релиза): Japan
Год издания: 2014
Издатель (лейбл): P-Vine
Номер по каталогу: PCD-20315
Аудиокодек: FLAC (*.flac)
Тип рипа: tracks+.cue
Битрейт аудио: lossless
Продолжительность: 01:20:03
Rip by JET 1
Наличие сканов в содержимом раздачи: да
Треклист:
01. Lowdown (Incognito feat. Mario Biondi & Chaka Khan) (4:25)
02. Triangle Ship (Terrace Martin feat. Kendrick Lamar) (5:40)
03. As (Madfinger) (3:49)
04. 110% (Jessie Ware) (3:26)
05. Nakamarra (Hiatus Kaiyote feat. Q-Tip) (4:35)
06. See Me Through (Bing Ji Ling feat. Diane Birch) (3:17)
07. Golden Summer Rays (The Soul Immigrants) (4:43)
08. Sweet & Saccharine (The Spandettes) (4:01)
09. Why Didn't You Call? (Gang Colours feat. Lulu James) (4:56)
10. One More For The Road (The Brand New Heavies) (5:49)
11. Sunshine (Sorry Drummer) (3:05)
12. LiquidLOVE (Chris Turner) (4:19)
13. The Lottery (The Stepkids) (3:50)
14. More Than (Amp Fiddler) (4:36)
15. Closer (Down To The Bone feat. Imaani) (6:01)
16. Perfect Stranger (Seravince) (5:53)
17. Only One (Saskwatch) (3:16)
18. Best Love (Georgia Anne Muldrow & Madlib) (4:23)
 
 
Лог создания рипа
Exact Audio Copy V1.0 beta 3 from 29. August 2011
EAC extraction logfile from 27. May 2016, 21:16
Unknown Artist / Free Soul-2010s Urban-Groove
Used drive : GENERIC CDRCB05 Adapter: 4 ID: 0
Read mode : Secure
Utilize accurate stream : Yes
Defeat audio cache : Yes
Make use of C2 pointers : No
Read offset correction : 102
Overread into Lead-In and Lead-Out : No
Fill up missing offset samples with silence : Yes
Delete leading and trailing silent blocks : No
Null samples used in CRC calculations : Yes
Used interface : Native Win32 interface for Win NT & 2000
Gap handling : Appended to previous track
Used output format : User Defined Encoder
Selected bitrate : 1024 kBit/s
Quality : High
Add ID3 tag : No
Command line compressor : C:\Program Files\FLAC\flac.exe
Additional command line options : -8 -V -T "ARTIST=%artist%" -T "TITLE=%title%" -T "ALBUM=%albumtitle%" -T "DATE=%year%" -T "TRACKNUMBER=%tracknr%" -T "GENRE=%genre%" -T "PERFORMER=%albuminterpret%" -T "COMPOSER=%composer%" %haslyrics%--tag-from-file=LYRICS="%lyricsfile%"%haslyrics% -T "ALBUMARTIST=%albumartist%" -T "DISCNUMBER=%cdnumber%" -T "TOTALDISCS=%totalcds%" -T "TOTALTRACKS=%numtracks%" -T "COMMENT=%comment%" %source% -o %dest%
TOC of the extracted CD
Track | Start | Length | Start sector | End sector
---------------------------------------------------------
1 | 0:00.00 | 4:25.31 | 0 | 19905
2 | 4:25.31 | 5:39.62 | 19906 | 45392
3 | 10:05.18 | 3:48.54 | 45393 | 62546
4 | 13:53.72 | 3:26.05 | 62547 | 78001
5 | 17:20.02 | 4:34.57 | 78002 | 98608
6 | 21:54.59 | 3:17.20 | 98609 | 113403
7 | 25:12.04 | 4:42.42 | 113404 | 134595
8 | 29:54.46 | 4:00.73 | 134596 | 152668
9 | 33:55.44 | 4:55.44 | 152669 | 174837
10 | 38:51.13 | 5:49.14 | 174838 | 201026
11 | 44:40.27 | 3:04.38 | 201027 | 214864
12 | 47:44.65 | 4:18.45 | 214865 | 234259
13 | 52:03.35 | 3:49.62 | 234260 | 251496
14 | 55:53.22 | 4:35.46 | 251497 | 272167
15 | 60:28.68 | 6:01.12 | 272168 | 299254
16 | 66:30.05 | 5:53.19 | 299255 | 325748
17 | 72:23.24 | 3:16.27 | 325749 | 340475
18 | 75:39.51 | 4:23.24 | 340476 | 360224
Track 1
Filename F:\.........POSTS\Free Soul - 2010s Urban-Groove [Japan] (2014)\01 - Incognito feat. Mario Biondi & Chaka Khan - Lowdown.wav
Pre-gap length 0:00:02.00
Peak level 100.0 %
Extraction speed 1.5 X
Track quality 100.0 %
Test CRC 15C0E3DE
Copy CRC 15C0E3DE
Accurately ripped (confidence 1) [F0FABB57] (AR v2)
Copy OK
Track 2
Filename F:\.........POSTS\Free Soul - 2010s Urban-Groove [Japan] (2014)\02 - Terrace Martin feat. Kendrick Lamar - Triangle Ship.wav
Peak level 99.4 %
Extraction speed 1.7 X
Track quality 100.0 %
Test CRC 5FB40DE5
Copy CRC 5FB40DE5
Accurately ripped (confidence 1) [D74201F3] (AR v2)
Copy OK
Track 3
Filename F:\.........POSTS\Free Soul - 2010s Urban-Groove [Japan] (2014)\03 - Madfinger - As.wav
Peak level 100.0 %
Extraction speed 1.5 X
Track quality 99.9 %
Test CRC E88DE6F0
Copy CRC E88DE6F0
Accurately ripped (confidence 1) [414A44D9] (AR v2)
Copy OK
Track 4
Filename F:\.........POSTS\Free Soul - 2010s Urban-Groove [Japan] (2014)\04 - Jessie Ware - 110%.wav
Peak level 100.0 %
Extraction speed 1.8 X
Track quality 100.0 %
Test CRC BF3CC2E2
Copy CRC BF3CC2E2
Accurately ripped (confidence 1) [B2791EC2] (AR v2)
Copy OK
Track 5
Filename F:\.........POSTS\Free Soul - 2010s Urban-Groove [Japan] (2014)\05 - Hiatus Kaiyote feat. Q-Tip - Nakamarra.wav
Peak level 100.0 %
Extraction speed 2.0 X
Track quality 100.0 %
Test CRC 4742AE6A
Copy CRC 4742AE6A
Accurately ripped (confidence 1) [DF21861B] (AR v2)
Copy OK
Track 6
Filename F:\.........POSTS\Free Soul - 2010s Urban-Groove [Japan] (2014)\06 - Bing Ji Ling feat. Diane Birch - See Me Through.wav
Peak level 84.1 %
Extraction speed 2.0 X
Track quality 100.0 %
Test CRC D267D507
Copy CRC D267D507
Accurately ripped (confidence 1) [808E0605] (AR v2)
Copy OK
Track 7
Filename F:\.........POSTS\Free Soul - 2010s Urban-Groove [Japan] (2014)\07 - The Soul Immigrants - Golden Summer Rays.wav
Peak level 100.0 %
Extraction speed 2.2 X
Track quality 100.0 %
Test CRC C7CBBC41
Copy CRC C7CBBC41
Accurately ripped (confidence 1) [24AED79F] (AR v2)
Copy OK
Track 8
Filename F:\.........POSTS\Free Soul - 2010s Urban-Groove [Japan] (2014)\08 - The Spandettes - Sweet & Saccharine.wav
Peak level 86.6 %
Extraction speed 2.3 X
Track quality 100.0 %
Test CRC D0E65866
Copy CRC D0E65866
Accurately ripped (confidence 1) [98CD79C6] (AR v2)
Copy OK
Track 9
Filename F:\.........POSTS\Free Soul - 2010s Urban-Groove [Japan] (2014)\09 - Gang Colours feat. Lulu James - Why Didn't You Call.wav
Peak level 99.4 %
Extraction speed 2.4 X
Track quality 100.0 %
Test CRC E1269A2C
Copy CRC E1269A2C
Accurately ripped (confidence 1) [95CB500A] (AR v2)
Copy OK
Track 10
Filename F:\.........POSTS\Free Soul - 2010s Urban-Groove [Japan] (2014)\10 - The Brand New Heavies - One More For The Road.wav
Peak level 99.4 %
Extraction speed 2.6 X
Track quality 100.0 %
Test CRC AAC8B5B8
Copy CRC AAC8B5B8
Accurately ripped (confidence 1) [86BC6794] (AR v2)
Copy OK
Track 11
Filename F:\.........POSTS\Free Soul - 2010s Urban-Groove [Japan] (2014)\11 - Sorry Drummer - Sunshine.wav
Peak level 100.0 %
Extraction speed 2.4 X
Track quality 100.0 %
Test CRC 0A1849BC
Copy CRC 0A1849BC
Accurately ripped (confidence 1) [1DA07EB7] (AR v2)
Copy OK
Track 12
Filename F:\.........POSTS\Free Soul - 2010s Urban-Groove [Japan] (2014)\12 - Chris Turner - LiquidLOVE.wav
Peak level 97.5 %
Extraction speed 2.3 X
Track quality 99.9 %
Test CRC 4384CC98
Copy CRC 4384CC98
Accurately ripped (confidence 1) [5D2F320B] (AR v2)
Copy OK
Track 13
Filename F:\.........POSTS\Free Soul - 2010s Urban-Groove [Japan] (2014)\13 - The Stepkids - The Lottery.wav
Peak level 100.0 %
Extraction speed 2.6 X
Track quality 100.0 %
Test CRC F2A34DF1
Copy CRC F2A34DF1
Accurately ripped (confidence 1) [E0DDA4CB] (AR v2)
Copy OK
Track 14
Filename F:\.........POSTS\Free Soul - 2010s Urban-Groove [Japan] (2014)\14 - Amp Fiddler - More Than.wav
Peak level 96.6 %
Extraction speed 2.8 X
Track quality 100.0 %
Test CRC 81196A92
Copy CRC 81196A92
Accurately ripped (confidence 1) [759D4EB4] (AR v2)
Copy OK
Track 15
Filename F:\.........POSTS\Free Soul - 2010s Urban-Groove [Japan] (2014)\15 - Down To The Bone feat. Imaani - Closer.wav
Peak level 100.0 %
Extraction speed 3.0 X
Track quality 100.0 %
Test CRC 663DBD1F
Copy CRC 663DBD1F
Accurately ripped (confidence 1) [8F1BAF6C] (AR v2)
Copy OK
Track 16
Filename F:\.........POSTS\Free Soul - 2010s Urban-Groove [Japan] (2014)\16 - Seravince - Perfect Stranger.wav
Peak level 99.4 %
Extraction speed 2.7 X
Track quality 99.9 %
Test CRC EF676BC2
Copy CRC EF676BC2
Accurately ripped (confidence 1) [2C18CB1A] (AR v2)
Copy OK
Track 17
Filename F:\.........POSTS\Free Soul - 2010s Urban-Groove [Japan] (2014)\17 - Saskwatch - Only One.wav
Peak level 94.4 %
Extraction speed 2.8 X
Track quality 100.0 %
Test CRC 7BC9EDC1
Copy CRC 7BC9EDC1
Accurately ripped (confidence 1) [CE49BF64] (AR v2)
Copy OK
Track 18
Filename F:\.........POSTS\Free Soul - 2010s Urban-Groove [Japan] (2014)\18 - Georgia Anne Muldrow & Madlib - Best Love.wav
Peak level 99.3 %
Extraction speed 2.9 X
Track quality 100.0 %
Test CRC 3E61F64D
Copy CRC 3E61F64D
Accurately ripped (confidence 1) [BB0E97EE] (AR v2)
Copy OK
All tracks accurately ripped
No errors occurred
End of status report
==== Log checksum B6C71047BED6280FFF7212D3037B89F9D286E3041ECD6845A0E1C34C8D1EE271 ====
 
Содержание индексной карты (.CUE)
REM GENRE R&B
REM DATE 2014
REM DISCID FD12C312
REM COMMENT "ExactAudioCopy v1.0b3"
PERFORMER "Various Artist"
TITLE "Free Soul - 2010s Urban-Groove"
FILE "01 - Incognito feat. Mario Biondi & Chaka Khan - Lowdown.wav" WAVE
TRACK 01 AUDIO
TITLE "Lowdown"
PERFORMER "Incognito feat. Mario Biondi & Chaka Khan"
INDEX 01 00:00:00
FILE "02 - Terrace Martin feat. Kendrick Lamar - Triangle Ship.wav" WAVE
TRACK 02 AUDIO
TITLE "Triangle Ship"
PERFORMER "Terrace Martin feat. Kendrick Lamar"
INDEX 01 00:00:00
FILE "03 - Madfinger - As.wav" WAVE
TRACK 03 AUDIO
TITLE "As"
PERFORMER "Madfinger"
INDEX 01 00:00:00
FILE "04 - Jessie Ware - 110%.wav" WAVE
TRACK 04 AUDIO
TITLE "110%"
PERFORMER "Jessie Ware"
INDEX 01 00:00:00
FILE "05 - Hiatus Kaiyote feat. Q-Tip - Nakamarra.wav" WAVE
TRACK 05 AUDIO
TITLE "Nakamarra"
PERFORMER "Hiatus Kaiyote feat. Q-Tip"
INDEX 01 00:00:00
FILE "06 - Bing Ji Ling feat. Diane Birch - See Me Through.wav" WAVE
TRACK 06 AUDIO
TITLE "See Me Through"
PERFORMER "Bing Ji Ling feat. Diane Birch"
INDEX 01 00:00:00
FILE "07 - The Soul Immigrants - Golden Summer Rays.wav" WAVE
TRACK 07 AUDIO
TITLE "Golden Summer Rays"
PERFORMER "The Soul Immigrants"
INDEX 01 00:00:00
FILE "08 - The Spandettes - Sweet & Saccharine.wav" WAVE
TRACK 08 AUDIO
TITLE "Sweet & Saccharine"
PERFORMER "The Spandettes"
INDEX 01 00:00:00
FILE "09 - Gang Colours feat. Lulu James - Why Didn't You Call.wav" WAVE
TRACK 09 AUDIO
TITLE "Why Didn't You Call?"
PERFORMER "Gang Colours feat. Lulu James"
INDEX 01 00:00:00
FILE "10 - The Brand New Heavies - One More For The Road.wav" WAVE
TRACK 10 AUDIO
TITLE "One More For The Road"
PERFORMER "The Brand New Heavies"
INDEX 01 00:00:00
FILE "11 - Sorry Drummer - Sunshine.wav" WAVE
TRACK 11 AUDIO
TITLE "Sunshine"
PERFORMER "Sorry Drummer"
INDEX 01 00:00:00
FILE "12 - Chris Turner - LiquidLOVE.wav" WAVE
TRACK 12 AUDIO
TITLE "LiquidLOVE"
PERFORMER "Chris Turner"
INDEX 01 00:00:00
FILE "13 - The Stepkids - The Lottery.wav" WAVE
TRACK 13 AUDIO
TITLE "The Lottery"
PERFORMER "The Stepkids"
INDEX 01 00:00:00
FILE "14 - Amp Fiddler - More Than.wav" WAVE
TRACK 14 AUDIO
TITLE "More Than"
PERFORMER "Amp Fiddler"
INDEX 01 00:00:00
FILE "15 - Down To The Bone feat. Imaani - Closer.wav" WAVE
TRACK 15 AUDIO
TITLE "Closer"
PERFORMER "Down To The Bone feat. Imaani"
INDEX 01 00:00:00
FILE "16 - Seravince - Perfect Stranger.wav" WAVE
TRACK 16 AUDIO
TITLE "Perfect Stranger"
PERFORMER "Seravince"
INDEX 01 00:00:00
FILE "17 - Saskwatch - Only One.wav" WAVE
TRACK 17 AUDIO
TITLE "Only One"
PERFORMER "Saskwatch"
INDEX 01 00:00:00
FILE "18 - Georgia Anne Muldrow & Madlib - Best Love.wav" WAVE
TRACK 18 AUDIO
TITLE "Best Love"
PERFORMER "Georgia Anne Muldrow & Madlib"
INDEX 01 00:00:00
Приватный:
Нет (DHT включён)
Размер:
617.00 Мб (646,969,998 байт) » файлов: 34
Участники:
0 раздают, 0 качают (0 участников всего)
Внешние участники:
3 раздают, 1 качают (4 участников всего) [ Обновить ]
Есть вопросы - пишите личное сообщение пользователю M0p94ok.
16:23
48
Нет комментариев. Ваш будет первым!