Поиск

(Funk, Soul, R&B, Disco) [CD] VA - Free Soul. The Treasure Of West End (2CD) - 2014, FLAC (tracks+.cue), lossless

(Funk, Soul, R&B, Disco) [CD] VA - Free Soul. The Treasure Of West End (2CD) - 2014, FLAC (tracks+.cue), lossless
Треклист:
Various Artists - Free Soul. The Treasure Of West End (2CD)

Жанр: Funk, Soul, R&B, Disco | Носитель: CD | Страна-производитель диска (релиза): Japan
Год издания: 2014 | Издатель (лейбл): Octave Lab | Номер по каталогу: OTLCD5086
Аудиокодек: FLAC (*.flac) | Тип рипа: tracks+.cue | Битрейт аудио: lossless
Продолжительность: 02:38:50 | Источник (релизер): APOLLO
Наличие сканов в содержимом раздачи: с discogs.com 
 
 
Disc 1 (01:19:30)
Треклист:
01. Sessomatto [Jim Stuard Disco Mix] (Sesso Matto) (10:02)
02. You Are The Star (Jakki) (6:38)
03. Can't You Feel It (Michele) (9:39)
04. Do It To The Music (Raw Silk) (6:31)
05. Rescue Me (Sybil Thomas) (6:39)
06. Girl I Like The Way That You Move (Stone) (6:48)
07. Is It All Over My Face [Larry Levan Female Vocal Version] (Loose Joints) (6:54)
08. No Frills [Party Version] (Taana Gardner) (7:04)
09. You Can't Have Your Cake And Eat It Too (B.T. (Brenda Taylor)) (5:58)
10. There's Never Been (No One Like You) (Kenix feat. Bobby Youngblood) (6:51)
11. Spirit Of Sunshine (The Chuck Davis Orchestra) (6:27)
 
 
Лог создания рипа
Exact Audio Copy V1.0 beta 3 from 29. August 2011
EAC extraction logfile from 19. November 2014, 11:41
Various Artists / Free Soul The Treasure Of West End (Disc 1)
Used drive : PIONEER BD-RW BDR-XD05 Adapter: 2 ID: 0
Read mode : Secure
Utilize accurate stream : Yes
Defeat audio cache : Yes
Make use of C2 pointers : No
Read offset correction : 667
Overread into Lead-In and Lead-Out : No
Fill up missing offset samples with silence : Yes
Delete leading and trailing silent blocks : No
Null samples used in CRC calculations : Yes
Used interface : Native Win32 interface for Win NT & 2000
Gap handling : Appended to previous track
Used output format : User Defined Encoder
Selected bitrate : 1024 kBit/s
Quality : High
Add ID3 tag : No
Command line compressor : C:\Program Files (x86)\Exact Audio Copy\Flac\flac.exe
Additional command line options : -8 -V -T "ARTIST=%artist%" -T "TITLE=%title%" -T "ALBUM=%albumtitle%" -T "DATE=%year%" -T "TRACKNUMBER=%tracknr%" -T "GENRE=%genre%" -T "PERFORMER=%albuminterpret%" -T "COMPOSER=%composer%" %haslyrics%--tag-from-file=LYRICS="%lyricsfile%"%haslyrics% -T "ALBUMARTIST=%albumartist%" -T "DISCNUMBER=%cdnumber%" -T "TOTALDISCS=%totalcds%" -T "TOTALTRACKS=%numtracks%" -T "COMMENT=%comment%" %source% -o %dest%
TOC of the extracted CD
Track | Start | Length | Start sector | End sector
---------------------------------------------------------
1 | 0:00.00 | 10:02.28 | 0 | 45177
2 | 10:02.28 | 6:38.22 | 45178 | 75049
3 | 16:40.50 | 9:39.01 | 75050 | 118475
4 | 26:19.51 | 6:30.67 | 118476 | 147792
5 | 32:50.43 | 6:38.39 | 147793 | 177681
6 | 39:29.07 | 6:47.67 | 177682 | 208273
7 | 46:16.74 | 6:54.04 | 208274 | 239327
8 | 53:11.03 | 7:03.49 | 239328 | 271101
9 | 60:14.52 | 5:58.09 | 271102 | 297960
10 | 66:12.61 | 6:50.38 | 297961 | 328748
11 | 73:03.24 | 6:26.41 | 328749 | 357739
Track 1
Filename C:\EACRips\01 Sesso Matto - Sessomatto [Jim Stuard Disco Mix].wav
Pre-gap length 0:00:02.00
Peak level 96.6 %
Extraction speed 3.4 X
Track quality 100.0 %
Test CRC 231BCEF3
Copy CRC 231BCEF3
Track not present in AccurateRip database
Copy OK
Track 2
Filename C:\EACRips\02 Jakki - You Are The Star.wav
Peak level 96.6 %
Extraction speed 3.8 X
Track quality 100.0 %
Test CRC 154B43AB
Copy CRC 154B43AB
Track not present in AccurateRip database
Copy OK
Track 3
Filename C:\EACRips\03 Michele - Can't You Feel It.wav
Peak level 96.6 %
Extraction speed 4.0 X
Track quality 99.9 %
Test CRC EBF157DE
Copy CRC EBF157DE
Track not present in AccurateRip database
Copy OK
Track 4
Filename C:\EACRips\04 Raw Silk - Do It To The Music.wav
Peak level 96.6 %
Extraction speed 4.5 X
Track quality 100.0 %
Test CRC 0F74396A
Copy CRC 0F74396A
Track not present in AccurateRip database
Copy OK
Track 5
Filename C:\EACRips\05 Sybil Thomas - Rescue Me.wav
Peak level 96.6 %
Extraction speed 4.8 X
Track quality 100.0 %
Test CRC E8DE668E
Copy CRC E8DE668E
Track not present in AccurateRip database
Copy OK
Track 6
Filename C:\EACRips\06 Stone - Girl I Like The Way That You Move.wav
Peak level 96.6 %
Extraction speed 5.0 X
Track quality 100.0 %
Test CRC EC640D3D
Copy CRC EC640D3D
Track not present in AccurateRip database
Copy OK
Track 7
Filename C:\EACRips\07 Loose Joints - Is It All Over My Face [Larry Levan Female Vocal Version].wav
Peak level 96.6 %
Extraction speed 5.3 X
Track quality 100.0 %
Test CRC 8673820D
Copy CRC 8673820D
Track not present in AccurateRip database
Copy OK
Track 8
Filename C:\EACRips\08 Taana Gardner - No Frills [Party Version].wav
Peak level 96.6 %
Extraction speed 5.1 X
Track quality 99.9 %
Test CRC 491F7539
Copy CRC 491F7539
Track not present in AccurateRip database
Copy OK
Track 9
Filename C:\EACRips\09 B.T. (Brenda Taylor) - You Can't Have Your Cake And Eat It Too.wav
Peak level 96.6 %
Extraction speed 5.6 X
Track quality 100.0 %
Test CRC AA2167E0
Copy CRC AA2167E0
Track not present in AccurateRip database
Copy OK
Track 10
Filename C:\EACRips\10 Kenix feat. Bobby Youngblood - There's Never Been (No One Like You).wav
Peak level 96.6 %
Extraction speed 5.9 X
Track quality 100.0 %
Test CRC DF09B249
Copy CRC DF09B249
Track not present in AccurateRip database
Copy OK
Track 11
Filename C:\EACRips\11 The Chuck Davis Orchestra - Spirit Of Sunshine.wav
Peak level 96.6 %
Extraction speed 6.0 X
Track quality 100.0 %
Test CRC 5F1D620B
Copy CRC 5F1D620B
Track not present in AccurateRip database
Copy OK
None of the tracks are present in the AccurateRip database
No errors occurred
End of status report
---- CUETools DB Plugin V2.1.3
[CTDB TOCID: iE3rTPrNW7IJFdbXp7XA3AExCVs-] disk not present in database, Submit result: iE3rTPrNW7IJFdbXp7XA3AExCVs- has been uploaded
==== Log checksum 5E58040842337BD13F5DA9FA681F40B55AF72C100B88DECE9C297EE4A717063A ====
 
Содержание индексной карты (.CUE)
REM GENRE Disco
REM DATE 2014
REM DISCID A112A10B
REM COMMENT "ExactAudioCopy v1.0b3"
PERFORMER "Various Artists"
TITLE "Free Soul The Treasure Of West End (Disc 1)"
FILE "01 Sesso Matto - Sessomatto [Jim Stuard Disco Mix].wav" WAVE
TRACK 01 AUDIO
TITLE "Sessomatto [Jim Stuard Disco Mix]"
PERFORMER "Sesso Matto"
INDEX 01 00:00:00
FILE "02 Jakki - You Are The Star.wav" WAVE
TRACK 02 AUDIO
TITLE "You Are The Star"
PERFORMER "Jakki"
INDEX 01 00:00:00
FILE "03 Michele - Can't You Feel It.wav" WAVE
TRACK 03 AUDIO
TITLE "Can't You Feel It"
PERFORMER "Michele"
INDEX 01 00:00:00
FILE "04 Raw Silk - Do It To The Music.wav" WAVE
TRACK 04 AUDIO
TITLE "Do It To The Music"
PERFORMER "Raw Silk"
INDEX 01 00:00:00
FILE "05 Sybil Thomas - Rescue Me.wav" WAVE
TRACK 05 AUDIO
TITLE "Rescue Me"
PERFORMER "Sybil Thomas"
INDEX 01 00:00:00
FILE "06 Stone - Girl I Like The Way That You Move.wav" WAVE
TRACK 06 AUDIO
TITLE "Girl I Like The Way That You Move"
PERFORMER "Stone"
INDEX 01 00:00:00
FILE "07 Loose Joints - Is It All Over My Face [Larry Levan Female Vocal Version].wav" WAVE
TRACK 07 AUDIO
TITLE "Is It All Over My Face [Larry Levan Female Vocal Version]"
PERFORMER "Loose Joints"
INDEX 01 00:00:00
FILE "08 Taana Gardner - No Frills [Party Version].wav" WAVE
TRACK 08 AUDIO
TITLE "No Frills [Party Version]"
PERFORMER "Taana Gardner"
INDEX 01 00:00:00
FILE "09 B.T. (Brenda Taylor) - You Can't Have Your Cake And Eat It Too.wav" WAVE
TRACK 09 AUDIO
TITLE "You Can't Have Your Cake And Eat It Too"
PERFORMER "B.T. (Brenda Taylor)"
INDEX 01 00:00:00
FILE "10 Kenix feat. Bobby Youngblood - There's Never Been (No One Like You).wav" WAVE
TRACK 10 AUDIO
TITLE "There's Never Been (No One Like You)"
PERFORMER "Kenix feat. Bobby Youngblood"
INDEX 01 00:00:00
FILE "11 The Chuck Davis Orchestra - Spirit Of Sunshine.wav" WAVE
TRACK 11 AUDIO
TITLE "Spirit Of Sunshine"
PERFORMER "The Chuck Davis Orchestra"
INDEX 01 00:00:00
 
Disc 2 (01:19:20)
Треклист:
01. Heartbeat [7″ Version] (Taana Gardner) (4:51)
02. Serious, Sirius Sax Party [The Unreleased Dub] (Ednah Holt) (7:03)
03. No Sense [Club Mix] (D'Bora) (6:51)
04. A Heartbeat Rap (Sweet G) (5:29)
05. Dance, Dance, Dance [Paul Poulos Special Disco Remix] (Bombers) (6:03)
06. Don't I Ever Cross Your Mind Sometime (Barbara Mason) (4:44)
07. Don't Make Me Wait [Extended Version] (Peech Boys) (8:20)
08. Pop Your Funk [7″ Version] (Loose Joints) (2:42)
09. Tell You (Today) [New Shoes Edit] (Loose Joints) (3:19)
10. I Was Born This Way [Tom Moulton Mix] (Carl Bean) (6:30)
11. Doin' The Best That I Can [A Special New Mix] (Bettye LaVette) (11:02)
12. Just In Time (Raw Silk) (6:54)
13. Touch Your Life (George & Glen Miller) (5:31)
 
 
Лог создания рипа
Exact Audio Copy V1.0 beta 3 from 29. August 2011
EAC extraction logfile from 19. November 2014, 12:32
Various Artists / Free Soul The Treasure Of West End (Disc 2)
Used drive : PIONEER BD-RW BDR-XD05 Adapter: 2 ID: 0
Read mode : Secure
Utilize accurate stream : Yes
Defeat audio cache : Yes
Make use of C2 pointers : No
Read offset correction : 667
Overread into Lead-In and Lead-Out : No
Fill up missing offset samples with silence : Yes
Delete leading and trailing silent blocks : No
Null samples used in CRC calculations : Yes
Used interface : Native Win32 interface for Win NT & 2000
Gap handling : Appended to previous track
Used output format : User Defined Encoder
Selected bitrate : 1024 kBit/s
Quality : High
Add ID3 tag : No
Command line compressor : C:\Program Files (x86)\Exact Audio Copy\Flac\flac.exe
Additional command line options : -8 -V -T "ARTIST=%artist%" -T "TITLE=%title%" -T "ALBUM=%albumtitle%" -T "DATE=%year%" -T "TRACKNUMBER=%tracknr%" -T "GENRE=%genre%" -T "PERFORMER=%albuminterpret%" -T "COMPOSER=%composer%" %haslyrics%--tag-from-file=LYRICS="%lyricsfile%"%haslyrics% -T "ALBUMARTIST=%albumartist%" -T "DISCNUMBER=%cdnumber%" -T "TOTALDISCS=%totalcds%" -T "TOTALTRACKS=%numtracks%" -T "COMMENT=%comment%" %source% -o %dest%
TOC of the extracted CD
Track | Start | Length | Start sector | End sector
---------------------------------------------------------
1 | 0:00.00 | 4:51.36 | 0 | 21860
2 | 4:51.36 | 7:03.28 | 21861 | 53613
3 | 11:54.64 | 6:51.30 | 53614 | 84468
4 | 18:46.19 | 5:29.17 | 84469 | 109160
5 | 24:15.36 | 6:03.05 | 109161 | 136390
6 | 30:18.41 | 4:44.00 | 136391 | 157690
7 | 35:02.41 | 8:20.11 | 157691 | 195201
8 | 43:22.52 | 2:41.74 | 195202 | 207350
9 | 46:04.51 | 3:18.69 | 207351 | 222269
10 | 49:23.45 | 6:30.26 | 222270 | 251545
11 | 55:53.71 | 11:01.45 | 251546 | 301165
12 | 66:55.41 | 6:53.40 | 301166 | 332180
13 | 73:49.06 | 5:30.56 | 332181 | 356986
Track 1
Filename C:\EACRips\01 Taana Gardner - Heartbeat [7'' Version].wav
Pre-gap length 0:00:02.00
Peak level 96.6 %
Extraction speed 2.7 X
Track quality 99.9 %
Test CRC 6DB53326
Copy CRC 6DB53326
Track not present in AccurateRip database
Copy OK
Track 2
Filename C:\EACRips\02 Ednah Holt - Serious, Sirius Sax Party [The Unreleased Dub].wav
Peak level 96.6 %
Extraction speed 3.5 X
Track quality 100.0 %
Test CRC CD283010
Copy CRC CD283010
Track not present in AccurateRip database
Copy OK
Track 3
Filename C:\EACRips\03 D'Bora - No Sense [Club Mix].wav
Peak level 96.6 %
Extraction speed 3.9 X
Track quality 100.0 %
Test CRC 689DDB37
Copy CRC 689DDB37
Track not present in AccurateRip database
Copy OK
Track 4
Filename C:\EACRips\04 Sweet G - A Heartbeat Rap.wav
Peak level 96.6 %
Extraction speed 4.1 X
Track quality 100.0 %
Test CRC 184299D2
Copy CRC 184299D2
Track not present in AccurateRip database
Copy OK
Track 5
Filename C:\EACRips\05 Bombers - Dance, Dance, Dance [Paul Poulos Special Disco Remix].wav
Peak level 96.6 %
Extraction speed 4.4 X
Track quality 100.0 %
Test CRC BCEBD60E
Copy CRC BCEBD60E
Track not present in AccurateRip database
Copy OK
Track 6
Filename C:\EACRips\06 Barbara Mason - Don't I Ever Cross Your Mind Sometime.wav
Peak level 96.6 %
Extraction speed 4.5 X
Track quality 100.0 %
Test CRC 3174CD89
Copy CRC 3174CD89
Track not present in AccurateRip database
Copy OK
Track 7
Filename C:\EACRips\07 Peech Boys - Don't Make Me Wait [Extended Version].wav
Peak level 96.6 %
Extraction speed 4.9 X
Track quality 100.0 %
Test CRC 46CD2BEE
Copy CRC 46CD2BEE
Track not present in AccurateRip database
Copy OK
Track 8
Filename C:\EACRips\08 Loose Joints - Pop Your Funk [7'' Version].wav
Peak level 96.6 %
Extraction speed 3.8 X
Track quality 99.9 %
Test CRC 3A30E918
Copy CRC 3A30E918
Track not present in AccurateRip database
Copy OK
Track 9
Filename C:\EACRips\09 Loose Joints - Tell You (Today) [New Shoes Edit].wav
Peak level 96.6 %
Extraction speed 4.8 X
Track quality 100.0 %
Test CRC B3BDE374
Copy CRC B3BDE374
Track not present in AccurateRip database
Copy OK
Track 10
Filename C:\EACRips\10 Carl Bean - I Was Born This Way [Tom Moulton Mix].wav
Peak level 96.6 %
Extraction speed 5.3 X
Track quality 100.0 %
Test CRC 46C021A8
Copy CRC 46C021A8
Track not present in AccurateRip database
Copy OK
Track 11
Filename C:\EACRips\11 Bettye LaVette - Doin' The Best That I Can [A Special New Mix].wav
Peak level 96.6 %
Extraction speed 5.8 X
Track quality 100.0 %
Test CRC B3B180E9
Copy CRC B3B180E9
Track not present in AccurateRip database
Copy OK
Track 12
Filename C:\EACRips\12 Raw Silk - Just In Time.wav
Peak level 96.6 %
Extraction speed 5.9 X
Track quality 100.0 %
Test CRC 4288ECB2
Copy CRC 4288ECB2
Track not present in AccurateRip database
Copy OK
Track 13
Filename C:\EACRips\13 George & Glen Miller - Touch Your Life.wav
Peak level 96.6 %
Extraction speed 6.0 X
Track quality 100.0 %
Test CRC F9D7D06A
Copy CRC F9D7D06A
Track not present in AccurateRip database
Copy OK
None of the tracks are present in the AccurateRip database
No errors occurred
End of status report
---- CUETools DB Plugin V2.1.3
[CTDB TOCID: 4BKzaJBNQdxxY6dImHSuGsyubSU-] disk not present in database, Submit result: 4BKzaJBNQdxxY6dImHSuGsyubSU- has been uploaded
==== Log checksum 515153D11F1AD4000333CE6846D7EAE08C4982F3FCB9F9B70942B5063C393FCB ====
 
Содержание индексной карты (.CUE)
REM GENRE Disco
REM DATE 2014
REM DISCID AC12970D
REM COMMENT "ExactAudioCopy v1.0b3"
PERFORMER "Various Artists"
TITLE "Free Soul The Treasure Of West End (Disc 2)"
FILE "01 Taana Gardner - Heartbeat [7″ Version].wav" WAVE
TRACK 01 AUDIO
TITLE "Heartbeat [7″ Version]"
PERFORMER "Taana Gardner"
INDEX 01 00:00:00
FILE "02 Ednah Holt - Serious, Sirius Sax Party [The Unreleased Dub].wav" WAVE
TRACK 02 AUDIO
TITLE "Serious, Sirius Sax Party [The Unreleased Dub]"
PERFORMER "Ednah Holt"
INDEX 01 00:00:00
FILE "03 D'Bora - No Sense [Club Mix].wav" WAVE
TRACK 03 AUDIO
TITLE "No Sense [Club Mix]"
PERFORMER "D'Bora"
INDEX 01 00:00:00
FILE "04 Sweet G - A Heartbeat Rap.wav" WAVE
TRACK 04 AUDIO
TITLE "A Heartbeat Rap"
PERFORMER "Sweet G"
INDEX 01 00:00:00
FILE "05 Bombers - Dance, Dance, Dance [Paul Poulos Special Disco Remix].wav" WAVE
TRACK 05 AUDIO
TITLE "Dance, Dance, Dance [Paul Poulos Special Disco Remix]"
PERFORMER "Bombers"
INDEX 01 00:00:00
FILE "06 Barbara Mason - Don't I Ever Cross Your Mind Sometime.wav" WAVE
TRACK 06 AUDIO
TITLE "Don't I Ever Cross Your Mind Sometime"
PERFORMER "Barbara Mason"
INDEX 01 00:00:00
FILE "07 Peech Boys - Don't Make Me Wait [Extended Version].wav" WAVE
TRACK 07 AUDIO
TITLE "Don't Make Me Wait [Extended Version]"
PERFORMER "Peech Boys"
INDEX 01 00:00:00
FILE "08 Loose Joints - Pop Your Funk [7″ Version].wav" WAVE
TRACK 08 AUDIO
TITLE "Pop Your Funk [7″ Version]"
PERFORMER "Loose Joints"
INDEX 01 00:00:00
FILE "09 Loose Joints - Tell You (Today) [New Shoes Edit].wav" WAVE
TRACK 09 AUDIO
TITLE "Tell You (Today) [New Shoes Edit]"
PERFORMER "Loose Joints"
INDEX 01 00:00:00
FILE "10 Carl Bean - I Was Born This Way [Tom Moulton Mix].wav" WAVE
TRACK 10 AUDIO
TITLE "I Was Born This Way [Tom Moulton Mix]"
PERFORMER "Carl Bean"
INDEX 01 00:00:00
FILE "11 Bettye LaVette - Doin' The Best That I Can [A Special New Mix].wav" WAVE
TRACK 11 AUDIO
TITLE "Doin' The Best That I Can [A Special New Mix]"
PERFORMER "Bettye LaVette"
INDEX 01 00:00:00
FILE "12 Raw Silk - Just In Time.wav" WAVE
TRACK 12 AUDIO
TITLE "Just In Time"
PERFORMER "Raw Silk"
INDEX 01 00:00:00
FILE "13 George & Glen Miller - Touch Your Life.wav" WAVE
TRACK 13 AUDIO
TITLE "Touch Your Life"
PERFORMER "George & Glen Miller"
INDEX 01 00:00:00
Приватный:
Нет (DHT включён)
Размер:
1.07 Гб (1,153,791,415 байт) » файлов: 51
Участники:
0 раздают, 0 качают (0 участников всего)
Внешние участники:
9 раздают, 3 качают (12 участников всего) [ Обновить ]
No seeders - write personal message to user M0p94ok. Нет сидеров - пишите личное сообщение пользователю M0p94ok.
16:24
47
Нет комментариев. Ваш будет первым!