Поиск

(Soul, R&B, Gospel) [WEB] Brook Benton - The Gospel Truth - 1971/2012, FLAC (tracks), lossless

(Soul, R&B, Gospel) [WEB] Brook Benton - The Gospel Truth - 1971/2012, FLAC (tracks), lossless
Треклист:
Brook Benton / The Gospel Truth
Жанр: Soul, R&B, Gospel
Носитель: WEB
Год издания: 1971/2012
Издатель (лейбл): Rhino Atlantic
Страна исполнителя (группы): USA
Аудиокодек: FLAC (*.flac)
Тип рипа: tracks
Битрейт аудио: lossless
Продолжительность: 00:36:47
Источник (релизер): 7digital
Наличие сканов в содержимом раздачи: Front
Треклист:
1. Let Us All Get Together With the Lord
2. Oh Happy Day
3. Heaven Help Us All
4. Going Home in His Name
5. Take A Look At Your Hands
6. If You Think God is Dead
7. I Dreamed of a City Called Heaven
8. Doing the Best That I Can Do
9. Precious Lord
 
DR Log
foobar2000 1.1.10 / Dynamic Range Meter 1.1.1
log date: 2018-01-07 18:22:36
--------------------------------------------------------------------------------
Analyzed: Brook Benton / The Gospel Truth
--------------------------------------------------------------------------------
DR Peak RMS Duration Track
--------------------------------------------------------------------------------
DR11 -1.79 dB -16.86 dB 4:27 ?-Let Us All Get Together With the Lord
DR12 -1.33 dB -18.29 dB 3:56 ?-Oh Happy Day
DR13 -3.62 dB -20.55 dB 3:33 ?-Heaven Help Us All
DR12 -1.83 dB -17.77 dB 2:52 ?-Going Home in His Name
DR13 -0.06 dB -16.03 dB 4:18 ?-Take A Look At Your Hands
DR12 -1.71 dB -18.60 dB 4:45 ?-If You Think God is Dead
DR11 -3.06 dB -18.18 dB 4:25 ?-I Dreamed of a City Called Heaven
DR12 -2.32 dB -17.86 dB 5:39 ?-Doing the Best That I Can Do
DR12 -4.96 dB -22.26 dB 2:52 ?-Precious Lord
--------------------------------------------------------------------------------
Number of tracks: 9
Official DR value: DR12
Samplerate: 44100 Hz
Channels: 2
Bits per sample: 16
Bitrate: 627 kbps
Codec: FLAC
================================================================================
 
Лог проверки качества
-----------------------
DON'T MODIFY THIS FILE
-----------------------
PERFORMER: auCDtect Task Manager, ver. 1.5.1RC4 build 1.5.1.5
Copyright (c) 2008-2010 y-soft. All rights reserved
http://y-soft.org
ANALYZER: auCDtect: CD records authenticity detector, version 0.8.2
Copyright (c) 2004 Oleg Berngardt. All rights reserved.
Copyright (c) 2004 Alexander Djourik. All rights reserved.
FILE: 9. Precious Lord.flac
Size: 13650447 Hash: BDCCE96A4BF34E33491978B4FBFC7AA9 Accuracy: -m0
Conclusion: CDDA 100%
Signature: 9E2B82469CA16142066301134924FAC7D301D8DB
FILE: 8. Doing the Best That I Can Do.flac
Size: 29758313 Hash: 0D47E4EF159ED5BA9D894F667D03142A Accuracy: -m0
Conclusion: CDDA 100%
Signature: 22D5BEDEEAF913D7441CEFB0D7204F2932C68F8A
FILE: 7. I Dreamed of a City Called Heaven.flac
Size: 23153298 Hash: 5F06499898AC31D4EA9E70F2AD1A24FD Accuracy: -m0
Conclusion: CDDA 100%
Signature: 4FFDFDF7FE5699BEDE6A7F8255E803895A301BBB
FILE: 6. If You Think God is Dead.flac
Size: 24522548 Hash: 3A042338F83B6AE794293D5E814884A1 Accuracy: -m0
Conclusion: CDDA 100%
Signature: F3AEC53E11F85ACE2F054EF859890F1BE6D9EAD9
FILE: 5. Take A Look At Your Hands.flac
Size: 24792950 Hash: 785F4ACAA17BC5375BDE8718F21931C8 Accuracy: -m0
Conclusion: CDDA 100%
Signature: F1009005045E66FBDE9F8ED68682824AAEFF241C
FILE: 4. Going Home in His Name.flac
Size: 15173012 Hash: FE3999984C6050F408FCF090336C5722 Accuracy: -m0
Conclusion: CDDA 100%
Signature: 9EC3085456F37C13BF11610BEB984C9D1836FE1D
FILE: 3. Heaven Help Us All.flac
Size: 19266639 Hash: FFB9B2082102FAFE8C906968E4622B2E Accuracy: -m0
Conclusion: CDDA 100%
Signature: 59665A5385747EFA08C1D70528A415238EE5AAC9
FILE: 2. Oh Happy Day.flac
Size: 20143005 Hash: 4C08AD5558AEB9EB3A8A7597FC06B8A7 Accuracy: -m0
Conclusion: CDDA 100%
Signature: 7008986C60BEDDD2C49F90DDDF1658F4E68FD330
FILE: 1. Let Us All Get Together With the Lord.flac
Size: 26201050 Hash: 1B40E0872A1319F5299F80C953E24B3C Accuracy: -m0
Conclusion: CDDA 100%
Signature: 736D4F1C1CF515C49827AC8451E9D93DC2EBD539
 
Об исполнителе (группе)
Приватный:
Нет (DHT включён)
Размер:
187.72 Мб (196,834,952 байт) » файлов: 12
Участники:
0 раздают, 0 качают (0 участников всего)
Внешние участники:
2 раздают, 1 качают (3 участников всего) [ Обновить ]
Есть вопросы - пишите личное сообщение пользователю M0p94ok.
15:16
36
Нет комментариев. Ваш будет первым!