Поиск

(Jazz-Funk, Funk) [WEB] Gotham - Pass The Butter - 1972/2017, FLAC (tracks), lossless

(Jazz-Funk, Funk) [WEB] Gotham - Pass The Butter - 1972/2017, FLAC (tracks), lossless
Треклист:
Gotham / Pass The Butter
Жанр: Jazz-Funk, Funk
Носитель: WEB
Год издания: 1972/2017
Издатель (лейбл): A Motown Records, UMG Recordings, Inc.
Номер по каталогу: USA
Аудиокодек: FLAC (*.flac)
Тип рипа: tracks
Битрейт аудио: lossless
Продолжительность: 00:42:27
Источник (релизер): 7digital
Наличие сканов в содержимом раздачи: Front
Треклист:
01. Sittin On A Mountain
02. Ease My Mind
03. Why Doesnt The Sun Shine
04. Behind The Wall
05. Use It Or Lose It
06. Window Pane
07. Moon
08. They Made Me An Outlaw
09. Daddy Left Home
10. Talkin' 'Bout
11. Gettin High
 
DR Log
foobar2000 1.1.10 / Dynamic Range Meter 1.1.1
log date: 2018-01-09 16:50:15
--------------------------------------------------------------------------------
Analyzed: Gotham / Pass The Butter
--------------------------------------------------------------------------------
DR Peak RMS Duration Track
--------------------------------------------------------------------------------
DR8 0.00 dB -10.38 dB 3:26 ?-Sittin On A Mountain
DR10 0.00 dB -11.44 dB 3:56 ?-Ease My Mind
DR9 0.00 dB -11.36 dB 3:09 ?-Why Doesnt The Sun Shine
DR9 0.00 dB -13.19 dB 5:51 ?-Behind The Wall
DR10 0.00 dB -11.11 dB 3:29 ?-Use It Or Lose It
DR10 0.00 dB -13.56 dB 7:12 ?-Window Pane
DR12 0.00 dB -15.50 dB 1:23 ?-Moon
DR11 0.00 dB -13.36 dB 2:52 ?-They Made Me An Outlaw
DR10 0.00 dB -11.95 dB 2:46 ?-Daddy Left Home
DR10 0.00 dB -11.42 dB 4:58 ?-Talkin' 'Bout
DR10 0.00 dB -11.82 dB 3:25 ?-Gettin High
--------------------------------------------------------------------------------
Number of tracks: 11
Official DR value: DR10
Samplerate: 44100 Hz
Channels: 2
Bits per sample: 16
Bitrate: 947 kbps
Codec: FLAC
================================================================================
 
Лог проверки качества
-----------------------
DON'T MODIFY THIS FILE
-----------------------
PERFORMER: auCDtect Task Manager, ver. 1.5.1RC4 build 1.5.1.5
Copyright (c) 2008-2010 y-soft. All rights reserved
http://y-soft.org
ANALYZER: auCDtect: CD records authenticity detector, version 0.8.2
Copyright (c) 2004 Oleg Berngardt. All rights reserved.
Copyright (c) 2004 Alexander Djourik. All rights reserved.
FILE: 11. Gettin High.flac
Size: 24606691 Hash: 4A37EED4D65B38F9021FEE45EE814CF1 Accuracy: -m0
Conclusion: CDDA 100%
Signature: 5E435C85AA038788EF13FF5542DCA1E0F4C5076D
FILE: 10. Talkin' 'Bout.flac
Size: 36400002 Hash: F832C735418A67A29A94D80B71406E49 Accuracy: -m0
Conclusion: CDDA 100%
Signature: 8267814C5D5AD3D3EBCF1528F49D51AF2CC63749
FILE: 09. Daddy Left Home.flac
Size: 19650658 Hash: 01FDA2C5FA9D5222343209DF41879157 Accuracy: -m0
Conclusion: CDDA 100%
Signature: EAB77B1F9966E74D45417CDF4E50508696A7474F
FILE: 08. They Made Me An Outlaw.flac
Size: 17819447 Hash: 3A2A612599D68B82AE31959429BE1FAB Accuracy: -m0
Conclusion: CDDA 100%
Signature: B2B5B607A647A1FE9DF0847CFC7131A5F3F39D7C
FILE: 07. Moon.flac
Size: 9490414 Hash: EEBB6D62022F7308A77C27A10C8BBD02 Accuracy: -m0
Conclusion: CDDA 100%
Signature: 5EE06F426ED5A5EFAFA272F71333633406163116
FILE: 06. Window Pane.flac
Size: 49965972 Hash: A5B8DA0972322CB98908CCA113DB4518 Accuracy: -m0
Conclusion: CDDA 100%
Signature: DDA1C4EC0DD621D1CA06E698017D57986C2060A2
FILE: 05. Use It Or Lose It.flac
Size: 25628601 Hash: 20C26FD460F0133AE505D2BD8E95849F Accuracy: -m0
Conclusion: CDDA 100%
Signature: 1ADAFC7F698ABA80C85667BFC377FE5344F39432
FILE: 04. Behind The Wall.flac
Size: 35859240 Hash: 65B044DE0733444C2C40EBE64363981F Accuracy: -m0
Conclusion: CDDA 100%
Signature: 6F8EFA7F8A62EFE773779DB462CA61B11E5C0073
FILE: 03. Why Doesnt The Sun Shine.flac
Size: 20997597 Hash: 13404AC0076BCCC37C18B8682819DA8F Accuracy: -m0
Conclusion: CDDA 100%
Signature: 58D10947BCB54C3E39EC8B6D79F7B27551249052
FILE: 02. Ease My Mind.flac
Size: 30635303 Hash: BC0F577844D6296715BCCF7566D7DBE3 Accuracy: -m0
Conclusion: CDDA 100%
Signature: 4C1F3A4CFFDA1EEE444BC052D488578E72F72A01
FILE: 01. Sittin On A Mountain.flac
Size: 25148802 Hash: AFBF84D9B614EBD2925F0AC4FF9C9E95 Accuracy: -m0
Conclusion: CDDA 100%
Signature: F192F20184A1231630C306A68871CC5CDF7BD5F7
 
Об исполнителе (группе)
 
Состав
Acoustic Guitar, Vocals – Schuylar "Sky" Ford
Alto Saxophone, Tenor Saxophone, Flute – Alfred "Peewee" Ellis, Frank Vicari
Bass – Chris Qualles
Drums, Congas – James Strassburg
Guitar [Fender] – Link Chamberlin
Trumpet, Flugelhorn – John Eckert, John Gatchell
Приватный:
Нет (DHT включён)
Размер:
282.79 Мб (296,526,348 байт) » файлов: 14
Участники:
0 раздают, 0 качают (0 участников всего)
Внешние участники:
2 раздают, 1 качают (3 участников всего) [ Обновить ]
Есть вопросы - пишите личное сообщение пользователю M0p94ok.
15:16
65
Нет комментариев. Ваш будет первым!