Поиск

(Soul, R&B) [CD] Swamp Dogg - The White Man Made Me Do It (Bonus CD) - 2015, FLAC (tracks+.cue), lossless

(Soul, R&B) [CD] Swamp Dogg - The White Man Made Me Do It (Bonus CD) - 2015, FLAC (tracks+.cue), lossless
Треклист:
Swamp Dogg / The White Man Made Me Do It (Bonus CD)
Жанр: Soul, R&B
Носитель: CD
Год издания: 2015
Издатель (лейбл): Alive Records / Burnside / SDEG
Аудиокодек: FLAC (*.flac)
Тип рипа: tracks+.cue
Битрейт аудио: lossless
Продолжительность: 00:59:58 + 00:32:18
Источник (релизер): nertwebber
Наличие сканов в содержимом раздачи: нет
Треклист:
SWAMP DOGG “The White Man Made Me Do It” CD track listing :
1. The White Man Made Me Do It
2. Lying Lying Lying Woman
3. Hey Renae
4. You Send Me
5. Let Me Be Wrong
6. Your Cash Ain't Nothing But Trash
7. I'm So Happy
8. That's What Lonesome Is
9. Yeah Yeah Yeah
10. Can Anybody Tell Me Where Is Sly
11. Smokey Joe's Cafe
12. Light A Candle Ring A Bell
13. Prejudice Is Alive And Well
14. If That Aint The Blues… Nothing Is
“The BEST OF SWAMP DOGG’S SOUL & BLUES COLLECTION” CD track listing :
1. Rescue me (Sandra Phillips)
2. Good morning Heartaches (Lightning Slim)
3. In Between Tears (Irma Thomas)
4. Read Between The Lines (Charlie Whitehead)
5. It ain't No use (Z.Z.hill)
6. To The Other woman (I'm The Other Woman) (Doris Duke)
7. What Is Heaven For (Wolfmoon)
8. F*ck The Bomb Stop The Drugs (Swamp Dogg)
9. Synthetic World (Swamp Dogg)
10. My life Ain't Nothing But A Blues Song (Swamp Dogg)
 
Disc1
 
Лог создания рипа
Exact Audio Copy V1.0 beta 3 from 29. August 2011
EAC extraction logfile from 8. February 2015, 7:49
Swamp Dogg / The White Man Made Me Do It
Used drive : ATAPI iHAS324 Y Adapter: 0 ID: 0
Read mode : Secure
Utilize accurate stream : Yes
Defeat audio cache : Yes
Make use of C2 pointers : No
Read offset correction : 48
Overread into Lead-In and Lead-Out : No
Fill up missing offset samples with silence : Yes
Delete leading and trailing silent blocks : No
Null samples used in CRC calculations : Yes
Used interface : Native Win32 interface for Win NT & 2000
Gap handling : Appended to previous track
Used output format : User Defined Encoder
Selected bitrate : 896 kBit/s
Quality : High
Add ID3 tag : No
Command line compressor : C:\Program Files (x86)\Exact Audio Copy\FLAC\FLAC.EXE
Additional command line options : -8 -V -T "ARTIST=%artist%" -T "TITLE=%title%" -T "ALBUM=%albumtitle%" -T "DATE=%year%" -T "TRACKNUMBER=%tracknr%" -T "GENRE=%genre%" -T "PERFORMER=%albuminterpret%" -T "COMPOSER=%composer%" %haslyrics%--tag-from-file=LYRICS="%lyricsfile%"%haslyrics% -T "ALBUMARTIST=%albumartist%" -T "DISCNUMBER=%cdnumber%" -T "TOTALDISCS=%totalcds%" -T "TOTALTRACKS=%numtracks%" -T "COMMENT=%comment%" %source% -o %dest%
TOC of the extracted CD
Track | Start | Length | Start sector | End sector
---------------------------------------------------------
1 | 0:00.00 | 7:21.04 | 0 | 33078
2 | 7:21.04 | 4:15.62 | 33079 | 52265
3 | 11:36.66 | 4:40.23 | 52266 | 73288
4 | 16:17.14 | 3:44.21 | 73289 | 90109
5 | 20:01.35 | 3:49.29 | 90110 | 107313
6 | 23:50.64 | 3:25.07 | 107314 | 122695
7 | 27:15.71 | 5:59.49 | 122696 | 149669
8 | 33:15.45 | 3:31.22 | 149670 | 165516
9 | 36:46.67 | 3:54.29 | 165517 | 183095
10 | 40:41.21 | 3:38.44 | 183096 | 199489
11 | 44:19.65 | 4:22.53 | 199490 | 219192
12 | 48:42.43 | 5:27.54 | 219193 | 243771
13 | 54:10.22 | 5:36.00 | 243772 | 268971
14 | 59:46.22 | 4:34.27 | 268972 | 289548
Track 1
Filename L:\EAC\Swamp Dogg - The White Man Made Me Do It (2015)\01 - The White Man Made Me Do It.wav
Pre-gap length 0:00:02.00
Peak level 98.8 %
Extraction speed 1.1 X
Track quality 100.0 %
Test CRC 8744380D
Copy CRC 8744380D
Track not present in AccurateRip database
Copy OK
Track 2
Filename L:\EAC\Swamp Dogg - The White Man Made Me Do It (2015)\02 - Lying Lying Lying Woman.wav
Peak level 99.2 %
Extraction speed 1.0 X
Track quality 100.0 %
Test CRC 702962FF
Copy CRC 702962FF
Track not present in AccurateRip database
Copy OK
Track 3
Filename L:\EAC\Swamp Dogg - The White Man Made Me Do It (2015)\03 - Hey Renae.wav
Peak level 99.0 %
Extraction speed 1.0 X
Track quality 100.0 %
Test CRC F6521514
Copy CRC F6521514
Track not present in AccurateRip database
Copy OK
Track 4
Filename L:\EAC\Swamp Dogg - The White Man Made Me Do It (2015)\04 - You Send Me.wav
Peak level 98.8 %
Extraction speed 1.0 X
Track quality 100.0 %
Test CRC 21998EF7
Copy CRC 21998EF7
Track not present in AccurateRip database
Copy OK
Track 5
Filename L:\EAC\Swamp Dogg - The White Man Made Me Do It (2015)\05 - Let Me Be Wrong.wav
Peak level 98.8 %
Extraction speed 0.9 X
Track quality 99.9 %
Test CRC 50D55002
Copy CRC 50D55002
Track not present in AccurateRip database
Copy OK
Track 6
Filename L:\EAC\Swamp Dogg - The White Man Made Me Do It (2015)\06 - Your Cash Ain't Nothing But Trash.wav
Peak level 98.8 %
Extraction speed 1.0 X
Track quality 100.0 %
Test CRC BEFCF669
Copy CRC BEFCF669
Track not present in AccurateRip database
Copy OK
Track 7
Filename L:\EAC\Swamp Dogg - The White Man Made Me Do It (2015)\07 - I'm So Happy.wav
Peak level 100.0 %
Extraction speed 1.0 X
Track quality 100.0 %
Test CRC A9EA9818
Copy CRC A9EA9818
Track not present in AccurateRip database
Copy OK
Track 8
Filename L:\EAC\Swamp Dogg - The White Man Made Me Do It (2015)\08 - That's What Lonesome Is.wav
Peak level 100.0 %
Extraction speed 1.0 X
Track quality 100.0 %
Test CRC 38FCEDAB
Copy CRC 38FCEDAB
Track not present in AccurateRip database
Copy OK
Track 9
Filename L:\EAC\Swamp Dogg - The White Man Made Me Do It (2015)\09 - Yeah, Yeah, Yeah, Yeah.wav
Peak level 100.0 %
Extraction speed 0.9 X
Track quality 99.9 %
Test CRC 390F88D3
Copy CRC 390F88D3
Track not present in AccurateRip database
Copy OK
Track 10
Filename L:\EAC\Swamp Dogg - The White Man Made Me Do It (2015)\10 - Where Is Sly.wav
Peak level 99.5 %
Extraction speed 1.0 X
Track quality 100.0 %
Test CRC 68200F25
Copy CRC 68200F25
Track not present in AccurateRip database
Copy OK
Track 11
Filename L:\EAC\Swamp Dogg - The White Man Made Me Do It (2015)\11 - Smokey Joe's Café.wav
Peak level 100.0 %
Extraction speed 1.0 X
Track quality 100.0 %
Test CRC 0A76BA34
Copy CRC 0A76BA34
Track not present in AccurateRip database
Copy OK
Track 12
Filename L:\EAC\Swamp Dogg - The White Man Made Me Do It (2015)\12 - Light a Candle-Ring a Bell.wav
Peak level 98.8 %
Extraction speed 1.1 X
Track quality 100.0 %
Test CRC 53271A2C
Copy CRC 53271A2C
Track not present in AccurateRip database
Copy OK
Track 13
Filename L:\EAC\Swamp Dogg - The White Man Made Me Do It (2015)\13 - Prejudice Is Alive and Well.wav
Peak level 98.8 %
Extraction speed 0.9 X
Track quality 99.9 %
Test CRC A6CCA093
Copy CRC A6CCA093
Track not present in AccurateRip database
Copy OK
Track 14
Filename L:\EAC\Swamp Dogg - The White Man Made Me Do It (2015)\14 - If That Ain't the Blues Nothing Is.wav
Peak level 98.8 %
Extraction speed 1.0 X
Track quality 100.0 %
Test CRC B89CA3C8
Copy CRC B89CA3C8
Track not present in AccurateRip database
Copy OK
None of the tracks are present in the AccurateRip database
No errors occurred
End of status report
---- CUETools DB Plugin V2.1.3
[CTDB TOCID: izRojZ1yfvIWpAMO9oGaR7ZSNko-] disk not present in database, Submit result: izRojZ1yfvIWpAMO9oGaR7ZSNko- has been uploaded
==== Log checksum 355788E093370DC579785CAB27EEBADE9F07882E30A21DF54550C1955EE761AC ====
 
Содержание индексной карты (.CUE)
REM GENRE R&B
REM DATE 2015
REM DISCID D50F140E
REM COMMENT "ExactAudioCopy v1.0b3"
PERFORMER "Swamp Dogg"
TITLE "The White Man Made Me Do It"
FILE "01 - The White Man Made Me Do It.wav" WAVE
TRACK 01 AUDIO
TITLE "The White Man Made Me Do It"
PERFORMER "Swamp Dogg"
INDEX 01 00:00:00
FILE "02 - Lying Lying Lying Woman.wav" WAVE
TRACK 02 AUDIO
TITLE "Lying Lying Lying Woman"
PERFORMER "Swamp Dogg"
INDEX 01 00:00:00
FILE "03 - Hey Renae.wav" WAVE
TRACK 03 AUDIO
TITLE "Hey Renae"
PERFORMER "Swamp Dogg"
INDEX 01 00:00:00
FILE "04 - You Send Me.wav" WAVE
TRACK 04 AUDIO
TITLE "You Send Me"
PERFORMER "Swamp Dogg"
INDEX 01 00:00:00
FILE "05 - Let Me Be Wrong.wav" WAVE
TRACK 05 AUDIO
TITLE "Let Me Be Wrong"
PERFORMER "Swamp Dogg"
INDEX 01 00:00:00
FILE "06 - Your Cash Ain't Nothing But Trash.wav" WAVE
TRACK 06 AUDIO
TITLE "Your Cash Ain't Nothing But Trash"
PERFORMER "Swamp Dogg"
INDEX 01 00:00:00
FILE "07 - I'm So Happy.wav" WAVE
TRACK 07 AUDIO
TITLE "I'm So Happy"
PERFORMER "Swamp Dogg"
INDEX 01 00:00:00
FILE "08 - That's What Lonesome Is.wav" WAVE
TRACK 08 AUDIO
TITLE "That's What Lonesome Is"
PERFORMER "Swamp Dogg"
INDEX 01 00:00:00
FILE "09 - Yeah, Yeah, Yeah, Yeah.wav" WAVE
TRACK 09 AUDIO
TITLE "Yeah, Yeah, Yeah, Yeah"
PERFORMER "Swamp Dogg"
INDEX 01 00:00:00
FILE "10 - Where Is Sly.wav" WAVE
TRACK 10 AUDIO
TITLE "Where Is Sly"
PERFORMER "Swamp Dogg"
INDEX 01 00:00:00
FILE "11 - Smokey Joe's Café.wav" WAVE
TRACK 11 AUDIO
TITLE "Smokey Joe's Cafй"
PERFORMER "Swamp Dogg"
INDEX 01 00:00:00
FILE "12 - Light a Candle-Ring a Bell.wav" WAVE
TRACK 12 AUDIO
TITLE "Light a Candle-Ring a Bell"
PERFORMER "Swamp Dogg"
INDEX 01 00:00:00
FILE "13 - Prejudice Is Alive and Well.wav" WAVE
TRACK 13 AUDIO
TITLE "Prejudice Is Alive and Well"
PERFORMER "Swamp Dogg"
INDEX 01 00:00:00
FILE "14 - If That Ain't the Blues Nothing Is.wav" WAVE
TRACK 14 AUDIO
TITLE "If That Ain't the Blues Nothing Is"
PERFORMER "Swamp Dogg"
INDEX 01 00:00:00
 
Disc2 (bonus)
 
Лог создания рипа
Exact Audio Copy V1.0 beta 3 from 29. August 2011
EAC extraction logfile from 8. February 2015, 9:18
Swamp Dogg / Best of Swamp Dogg's Soul & Blues Collection
Used drive : ATAPI iHAS324 Y Adapter: 0 ID: 0
Read mode : Secure
Utilize accurate stream : Yes
Defeat audio cache : Yes
Make use of C2 pointers : No
Read offset correction : 48
Overread into Lead-In and Lead-Out : No
Fill up missing offset samples with silence : Yes
Delete leading and trailing silent blocks : No
Null samples used in CRC calculations : Yes
Used interface : Native Win32 interface for Win NT & 2000
Gap handling : Appended to previous track
Used output format : User Defined Encoder
Selected bitrate : 896 kBit/s
Quality : High
Add ID3 tag : No
Command line compressor : C:\Program Files (x86)\Exact Audio Copy\FLAC\FLAC.EXE
Additional command line options : -8 -V -T "ARTIST=%artist%" -T "TITLE=%title%" -T "ALBUM=%albumtitle%" -T "DATE=%year%" -T "TRACKNUMBER=%tracknr%" -T "GENRE=%genre%" -T "PERFORMER=%albuminterpret%" -T "COMPOSER=%composer%" %haslyrics%--tag-from-file=LYRICS="%lyricsfile%"%haslyrics% -T "ALBUMARTIST=%albumartist%" -T "DISCNUMBER=%cdnumber%" -T "TOTALDISCS=%totalcds%" -T "TOTALTRACKS=%numtracks%" -T "COMMENT=%comment%" %source% -o %dest%
TOC of the extracted CD
Track | Start | Length | Start sector | End sector
---------------------------------------------------------
1 | 0:00.00 | 2:50.57 | 0 | 12806
2 | 2:50.57 | 3:01.49 | 12807 | 26430
3 | 5:52.31 | 2:36.45 | 26431 | 38175
4 | 8:29.01 | 2:15.55 | 38176 | 48355
5 | 10:44.56 | 4:51.52 | 48356 | 70232
6 | 15:36.33 | 2:58.45 | 70233 | 83627
7 | 18:35.03 | 2:38.02 | 83628 | 95479
8 | 21:13.05 | 3:56.00 | 95480 | 113179
9 | 25:09.05 | 3:28.01 | 113180 | 128780
10 | 28:37.06 | 3:40.71 | 128781 | 145351
Track 1
Filename L:\EAC\Swamp Dogg - Best of Swamp Dogg's Soul & Blues Collection (2015)\01 Sandra Phillips - Rescue Me.wav
Pre-gap length 0:00:02.00
Peak level 100.0 %
Extraction speed 0.9 X
Track quality 100.0 %
Test CRC B3675B4D
Copy CRC B3675B4D
Track not present in AccurateRip database
Copy OK
Track 2
Filename L:\EAC\Swamp Dogg - Best of Swamp Dogg's Soul & Blues Collection (2015)\02 Lightning Slim - Good Morning Heartaches.wav
Peak level 95.7 %
Extraction speed 1.0 X
Track quality 100.0 %
Test CRC 2417FD22
Copy CRC 2417FD22
Track not present in AccurateRip database
Copy OK
Track 3
Filename L:\EAC\Swamp Dogg - Best of Swamp Dogg's Soul & Blues Collection (2015)\03 Irma Thomas - In Between Tears.wav
Peak level 98.9 %
Extraction speed 0.9 X
Track quality 100.0 %
Test CRC 8BBBA45E
Copy CRC 8BBBA45E
Track not present in AccurateRip database
Copy OK
Track 4
Filename L:\EAC\Swamp Dogg - Best of Swamp Dogg's Soul & Blues Collection (2015)\04 Charlie Whitehead - Read Between the Lines.wav
Peak level 98.4 %
Extraction speed 0.9 X
Track quality 100.0 %
Test CRC DF78196E
Copy CRC DF78196E
Track not present in AccurateRip database
Copy OK
Track 5
Filename L:\EAC\Swamp Dogg - Best of Swamp Dogg's Soul & Blues Collection (2015)\05 Z.Z. Hill - It Ain't No Use.wav
Peak level 97.3 %
Extraction speed 1.0 X
Track quality 100.0 %
Test CRC 4F862352
Copy CRC 4F862352
Track not present in AccurateRip database
Copy OK
Track 6
Filename L:\EAC\Swamp Dogg - Best of Swamp Dogg's Soul & Blues Collection (2015)\06 Doris Duke - To the Other Woman (I'm the Other Woman).wav
Peak level 100.0 %
Extraction speed 0.8 X
Track quality 99.9 %
Test CRC E0CD66A2
Copy CRC E0CD66A2
Track not present in AccurateRip database
Copy OK
Track 7
Filename L:\EAC\Swamp Dogg - Best of Swamp Dogg's Soul & Blues Collection (2015)\07 Wolfmoon - What Is Heaven For.wav
Peak level 97.7 %
Extraction speed 0.8 X
Track quality 99.9 %
Test CRC CE343208
Copy CRC CE343208
Track not present in AccurateRip database
Copy OK
Track 8
Filename L:\EAC\Swamp Dogg - Best of Swamp Dogg's Soul & Blues Collection (2015)\08 Swamp Dogg - Fuck the Bomb Stop the Drugs.wav
Peak level 100.0 %
Extraction speed 1.0 X
Track quality 100.0 %
Test CRC 07557E78
Copy CRC 07557E78
Track not present in AccurateRip database
Copy OK
Track 9
Filename L:\EAC\Swamp Dogg - Best of Swamp Dogg's Soul & Blues Collection (2015)\09 Swamp Dogg - Synthetic World.wav
Peak level 97.9 %
Extraction speed 1.0 X
Track quality 100.0 %
Test CRC A5277EB4
Copy CRC A5277EB4
Track not present in AccurateRip database
Copy OK
Track 10
Filename L:\EAC\Swamp Dogg - Best of Swamp Dogg's Soul & Blues Collection (2015)\10 Swamp Dogg - My Life Ain't Nothing But a Blues Song.wav
Peak level 96.1 %
Extraction speed 1.0 X
Track quality 100.0 %
Test CRC 113AFE12
Copy CRC 113AFE12
Track not present in AccurateRip database
Copy OK
None of the tracks are present in the AccurateRip database
No errors occurred
End of status report
---- CUETools DB Plugin V2.1.3
[CTDB TOCID: jfJ1OukwWw7nwu0lXYv8DcWKqgY-] disk not present in database, Submit result: jfJ1OukwWw7nwu0lXYv8DcWKqgY- has been uploaded
==== Log checksum 26E2120DB85C0E900C2B6A7EEF1176624151D20C2BC9F8E7245AC39BC1FF663C ====
 
Содержание индексной карты (.CUE)
REM GENRE R&B
REM DATE 2015
REM DISCID 7607920A
REM COMMENT "ExactAudioCopy v1.0b3"
PERFORMER "Swamp Dogg"
TITLE "Best of Swamp Dogg's Soul & Blues Collection"
FILE "01 Sandra Phillips - Rescue Me.wav" WAVE
TRACK 01 AUDIO
TITLE "Rescue Me"
PERFORMER "Sandra Phillips"
INDEX 01 00:00:00
FILE "02 Lightning Slim - Good Morning Heartaches.wav" WAVE
TRACK 02 AUDIO
TITLE "Good Morning Heartaches"
PERFORMER "Lightning Slim"
INDEX 01 00:00:00
FILE "03 Irma Thomas - In Between Tears.wav" WAVE
TRACK 03 AUDIO
TITLE "In Between Tears"
PERFORMER "Irma Thomas"
INDEX 01 00:00:00
FILE "04 Charlie Whitehead - Read Between the Lines.wav" WAVE
TRACK 04 AUDIO
TITLE "Read Between the Lines"
PERFORMER "Charlie Whitehead"
INDEX 01 00:00:00
FILE "05 Z.Z. Hill - It Ain't No Use.wav" WAVE
TRACK 05 AUDIO
TITLE "It Ain't No Use"
PERFORMER "Z.Z. Hill"
INDEX 01 00:00:00
FILE "06 Doris Duke - To the Other Woman (I'm the Other Woman).wav" WAVE
TRACK 06 AUDIO
TITLE "To the Other Woman (I'm the Other Woman)"
PERFORMER "Doris Duke"
INDEX 01 00:00:00
FILE "07 Wolfmoon - What Is Heaven For.wav" WAVE
TRACK 07 AUDIO
TITLE "What Is Heaven For"
PERFORMER "Wolfmoon"
INDEX 01 00:00:00
FILE "08 Swamp Dogg - Fuck the Bomb Stop the Drugs.wav" WAVE
TRACK 08 AUDIO
TITLE "Fuck the Bomb Stop the Drugs"
PERFORMER "Swamp Dogg"
INDEX 01 00:00:00
FILE "09 Swamp Dogg - Synthetic World.wav" WAVE
TRACK 09 AUDIO
TITLE "Synthetic World"
PERFORMER "Swamp Dogg"
INDEX 01 00:00:00
FILE "10 Swamp Dogg - My Life Ain't Nothing But a Blues Song.wav" WAVE
TRACK 10 AUDIO
TITLE "My Life Ain't Nothing But a Blues Song"
PERFORMER "Swamp Dogg"
INDEX 01 00:00:00
 
Об альбоме (сборнике)
Product Description:
Our CD VERSION is an EXCLUSIVE DOUBLE CD LIMITED EDITION that includes the BONUS CD The BEST OF SWAMP DOGG'S SOUL & BLUES COLLECTION, featuring 2 rare tracks. Comes with a 4 page booklet featuring a photo portrait of Swamp by photographer Robert Matheu.
The White Man Made Me Do It is Swamp Dogg's new album, and his first soul record in decades. Over the course of 14 songs, and with the help of a cast of veteran soul greats, the idiosyncratic performer re-captures the spirit of his 70's cult recordings. "The White Man Made Me Do It' mixes classic Southern soul grooves with pointed, poignant lyrics, reflecting upon race, love, and money. As usual Swamp demonstrates his savage sense of humor and his instinctive aversion to hypocrisy. Swamp Dogg is currently in the midst of a resurgence of interest in his work, coinciding with a new series of remastered reissues of his vintage albums, along with a selection of some of his most noteworthy production projects, including cult-classic releases by Doris Duke, Irma Thomas, Charlie Whitehead (aka Raw Spitt), Z.Z. Hill, Lightnin Slim, Wolfmoon and Sandra Phillips, all currently available on Alive Naturalsound.
AllMusic Review by Mark Deming
 
Состав
Piano (Grand), Primary Artist - Jerry "Swamp Dogg" Williams, Jr.
Trumpet - Bill Barrett, Troy Lombard, Roy Weigind
Sax (Tenor) - Dr. Charles G. Hayes, Larry Williams
Sax (Baritone) - Andy Najara
Trombone - Phil Ranelin
Guitar - 'Lucky' Lloyd Wright, Guitar Shorty
Keyboards, Organ - Michael Murphy
Bass - Stoney Dixon, Billy Haynes
Drums, Producer, Yamaha Keyboards - Larry "Moogstar" Clemons
Drums - Craig Kimbrough
String Ensemble - Dan Weinstein
Приватный:
Нет (DHT включён)
Размер:
612.18 Мб (641,922,084 байт) » файлов: 36
Участники:
0 раздают, 0 качают (0 участников всего)
Внешние участники:
1 раздают, 0 качают (1 участников всего) [ Обновить ]
Есть вопросы - пишите личное сообщение пользователю M0p94ok.
07:36
55
Нет комментариев. Ваш будет первым!