Поиск

(soul, funk, rhythm 'n' blues) [CD] Bettye Crutcher - Long As You Love Me (1974) + bonuses - 2013, FLAC (tracks+.cue), lossless

(soul, funk, rhythm 'n' blues) [CD] Bettye Crutcher - Long As You Love Me (1974) + bonuses - 2013, FLAC (tracks+.cue), lossless
Треклист:
Bettye Crutcher / Long As You Love Me (1974) + bonuses
Жанр: soul, funk, rhythm 'n' blues
Носитель: CD
Страна-производитель диска (релиза): UK
Год издания: 2013
Издатель (лейбл): Ace Records / Stax
Номер по каталогу: CDSXD 141
Страна исполнителя (группы): USA
Аудиокодек: FLAC (*.flac)
Тип рипа: tracks+.cue
Битрейт аудио: lossless
Продолжительность: 01:58:00
Источник (релизер): flabber
Наличие сканов в содержимом раздачи: да
Треклист:
01 As Long As You Love Me (02:55)
02 When We're Together (03:41)
03 Passion (04:19)
04 A Little Bit More Won't Hurt (04:11)
05 Sunday Morning's Gonna Find Us In Love (04:57)
06 Sugar Daddy (03:50)
07 Call Me When All Else Fails (05:07)
08 Up For A Let Down (02:54)
09 So Lonely Without You (02:53)
10 Sleepy People (04:28)
BONUS TRACKS
11 So Glad To Have You (03:36)
12 Don't You Think It's About Time? (03:27)
13 Make A Joyful Noise (05:06)
14 We've Got Love On Our Side (03:35)
15 Walk On To Your New Love (03:38)
16 I Forgive You (02:23)
 
Лог создания рипа
Exact Audio Copy V1.0 beta 3 from 29. August 2011
EAC extraction logfile from 24. August 2013, 22:13
Bettye Crutcher / Long As You Love Me
Used drive : ASUS DRW-24B1ST a Adapter: 7 ID: 0
Read mode : Secure
Utilize accurate stream : Yes
Defeat audio cache : Yes
Make use of C2 pointers : No
Read offset correction : 6
Overread into Lead-In and Lead-Out : No
Fill up missing offset samples with silence : Yes
Delete leading and trailing silent blocks : No
Null samples used in CRC calculations : Yes
Used interface : Native Win32 interface for Win NT & 2000
Gap handling : Appended to previous track
Used output format : User Defined Encoder
Selected bitrate : 1024 kBit/s
Quality : High
Add ID3 tag : No
Command line compressor : C:\Program Files (x86)\Exact Audio Copy\Flac\flac.exe
Additional command line options : -8 -V -T "ARTIST=%artist%" -T "TITLE=%title%" -T "ALBUM=%albumtitle%" -T "DATE=%year%" -T "TRACKNUMBER=%tracknr%" -T "TOTALTRACKS=%numtracks%" -T "GENRE=%genre%" -T "ALBUM ARTIST=%albumartist%" -T "ALBUMARTIST=%albumartist%" -T "COMPOSER=%albumcomposer%" -T "PERFORMER=%albuminterpret%" -T "COMMENT=EAC V1.0 beta 3, Secure Mode, Test & Copy, AccurateRip, FLAC -8" %source%
TOC of the extracted CD
Track | Start | Length | Start sector | End sector
---------------------------------------------------------
1 | 0:00.00 | 2:55.11 | 0 | 13135
2 | 2:55.11 | 3:41.25 | 13136 | 29735
3 | 6:36.36 | 4:19.13 | 29736 | 49173
4 | 10:55.49 | 4:11.18 | 49174 | 68016
5 | 15:06.67 | 4:56.54 | 68017 | 90270
6 | 20:03.46 | 3:49.66 | 90271 | 107511
7 | 23:53.37 | 5:07.14 | 107512 | 130550
8 | 29:00.51 | 2:53.51 | 130551 | 143576
9 | 31:54.27 | 2:52.38 | 143577 | 156514
10 | 34:46.65 | 4:27.54 | 156515 | 176593
11 | 39:14.44 | 3:35.42 | 176594 | 192760
12 | 42:50.11 | 3:27.26 | 192761 | 208311
13 | 46:17.37 | 5:05.42 | 208312 | 231228
14 | 51:23.04 | 3:34.46 | 231229 | 247324
15 | 54:57.50 | 3:37.73 | 247325 | 263672
16 | 58:35.48 | 2:22.52 | 263673 | 274374
Track 1
Filename D:\01 - As Long As You Love Me.wav
Pre-gap length 0:00:02.00
Peak level 96.2 %
Extraction speed 3.1 X
Track quality 100.0 %
Test CRC 53BC0431
Copy CRC 53BC0431
Track not present in AccurateRip database
Copy OK
Track 2
Filename D:\02 - When We're Together.wav
Pre-gap length 0:00:02.16
Peak level 96.2 %
Extraction speed 3.6 X
Track quality 100.0 %
Test CRC 1B515EB0
Copy CRC 1B515EB0
Track not present in AccurateRip database
Copy OK
Track 3
Filename D:\03 - Passion.wav
Pre-gap length 0:00:02.25
Peak level 96.2 %
Extraction speed 4.1 X
Track quality 100.0 %
Test CRC BC00BFDF
Copy CRC BC00BFDF
Track not present in AccurateRip database
Copy OK
Track 4
Filename D:\04 - A Little Bit More Won't Hurt.wav
Pre-gap length 0:00:01.73
Peak level 96.2 %
Extraction speed 4.4 X
Track quality 100.0 %
Test CRC 01E14C02
Copy CRC 01E14C02
Track not present in AccurateRip database
Copy OK
Track 5
Filename D:\05 - Sunday Morning's Gonna Find Us In Love.wav
Pre-gap length 0:00:03.40
Peak level 96.2 %
Extraction speed 4.8 X
Track quality 100.0 %
Test CRC 49639986
Copy CRC 49639986
Track not present in AccurateRip database
Copy OK
Track 6
Filename D:\06 - Sugar Daddy.wav
Pre-gap length 0:00:01.98
Peak level 96.2 %
Extraction speed 5.0 X
Track quality 100.0 %
Test CRC D5F0C3BC
Copy CRC D5F0C3BC
Track not present in AccurateRip database
Copy OK
Track 7
Filename D:\07 - Call Me When All Else Fails.wav
Pre-gap length 0:00:01.66
Peak level 96.2 %
Extraction speed 5.4 X
Track quality 100.0 %
Test CRC 324E513B
Copy CRC 324E513B
Track not present in AccurateRip database
Copy OK
Track 8
Filename D:\08 - Up For A Let Down.wav
Pre-gap length 0:00:02.10
Peak level 95.8 %
Extraction speed 5.2 X
Track quality 100.0 %
Test CRC 18515A0D
Copy CRC 18515A0D
Track not present in AccurateRip database
Copy OK
Track 9
Filename D:\09 - So Lonely Without You.wav
Pre-gap length 0:00:01.52
Peak level 96.1 %
Extraction speed 5.4 X
Track quality 100.0 %
Test CRC FD000FD5
Copy CRC FD000FD5
Track not present in AccurateRip database
Copy OK
Track 10
Filename D:\10 - Sleepy People.wav
Pre-gap length 0:00:02.00
Peak level 96.2 %
Extraction speed 6.0 X
Track quality 100.0 %
Test CRC 6460EB2D
Copy CRC 6460EB2D
Track not present in AccurateRip database
Copy OK
Track 11
Filename D:\11 - So Glad To Have You.wav
Pre-gap length 0:00:01.78
Peak level 96.2 %
Extraction speed 6.0 X
Track quality 100.0 %
Test CRC 18AB203D
Copy CRC 18AB203D
Track not present in AccurateRip database
Copy OK
Track 12
Filename D:\12 - Don't You Think It's About Time.wav
Pre-gap length 0:00:02.85
Peak level 96.2 %
Extraction speed 6.1 X
Track quality 100.0 %
Test CRC 435B84AD
Copy CRC 435B84AD
Track not present in AccurateRip database
Copy OK
Track 13
Filename D:\13 - Make A Joyful Noise.wav
Pre-gap length 0:00:02.18
Peak level 96.1 %
Extraction speed 6.7 X
Track quality 100.0 %
Test CRC 3EAF20A1
Copy CRC 3EAF20A1
Track not present in AccurateRip database
Copy OK
Track 14
Filename D:\14 - We've Got Love On Our Side.wav
Pre-gap length 0:00:02.37
Peak level 96.2 %
Extraction speed 6.6 X
Track quality 100.0 %
Test CRC 75BB5D54
Copy CRC 75BB5D54
Track not present in AccurateRip database
Copy OK
Track 15
Filename D:\15 - Walk On To Your New Love (Demo).wav
Pre-gap length 0:00:02.77
Peak level 96.2 %
Extraction speed 6.8 X
Track quality 100.0 %
Test CRC 4F8B92A4
Copy CRC 4F8B92A4
Track not present in AccurateRip database
Copy OK
Track 16
Filename D:\16 - I Forgive You (Demo).wav
Pre-gap length 0:00:01.89
Peak level 96.1 %
Extraction speed 6.4 X
Track quality 100.0 %
Test CRC 5066533E
Copy CRC 5066533E
Track not present in AccurateRip database
Copy OK
None of the tracks are present in the AccurateRip database
No errors occurred
End of status report
==== Log checksum DC8E2203ECBBAE4B73D096DA7846AE44461FE25098401CF063EA53A8389FEF85 ====
 
Содержание индексной карты (.CUE)
REM GENRE Soul
REM DATE 1974
REM DISCID FE0E4A10
REM COMMENT "ExactAudioCopy v1.0b3"
PERFORMER "Bettye Crutcher"
TITLE "Long As You Love Me"
FILE "01 - As Long As You Love Me.wav" WAVE
TRACK 01 AUDIO
TITLE "As Long As You Love Me"
PERFORMER "Bettye Crutcher"
ISRC GB03A1300385
INDEX 01 00:00:00
TRACK 02 AUDIO
TITLE "When We're Together"
PERFORMER "Bettye Crutcher"
ISRC GB03A1300386
INDEX 00 02:52:74
FILE "02 - When We're Together.wav" WAVE
INDEX 01 00:00:00
TRACK 03 AUDIO
TITLE "Passion"
PERFORMER "Bettye Crutcher"
ISRC GB03A1300387
INDEX 00 03:39:06
FILE "03 - Passion.wav" WAVE
INDEX 01 00:00:00
TRACK 04 AUDIO
TITLE "A Little Bit More Won't Hurt"
PERFORMER "Bettye Crutcher"
ISRC GB03A1300388
INDEX 00 04:17:33
FILE "04 - A Little Bit More Won't Hurt.wav" WAVE
INDEX 01 00:00:00
TRACK 05 AUDIO
TITLE "Sunday Morning's Gonna Find Us In Love"
PERFORMER "Bettye Crutcher"
ISRC GB03A1300389
INDEX 00 04:07:63
FILE "05 - Sunday Morning's Gonna Find Us In Love.wav" WAVE
INDEX 01 00:00:00
TRACK 06 AUDIO
TITLE "Sugar Daddy"
PERFORMER "Bettye Crutcher"
ISRC GB03A0921198
INDEX 00 04:54:55
FILE "06 - Sugar Daddy.wav" WAVE
INDEX 01 00:00:00
TRACK 07 AUDIO
TITLE "Call Me When All Else Fails"
PERFORMER "Bettye Crutcher"
ISRC GB03A1300390
INDEX 00 03:48:16
FILE "07 - Call Me When All Else Fails.wav" WAVE
INDEX 01 00:00:00
TRACK 08 AUDIO
TITLE "Up For A Let Down"
PERFORMER "Bettye Crutcher"
ISRC GB03A1300391
INDEX 00 05:05:06
FILE "08 - Up For A Let Down.wav" WAVE
INDEX 01 00:00:00
TRACK 09 AUDIO
TITLE "So Lonely Without You"
PERFORMER "Bettye Crutcher"
ISRC GB03A1300392
INDEX 00 02:52:12
FILE "09 - So Lonely Without You.wav" WAVE
INDEX 01 00:00:00
TRACK 10 AUDIO
TITLE "Sleepy People"
PERFORMER "Bettye Crutcher"
ISRC GB03A1300393
INDEX 00 02:50:38
FILE "10 - Sleepy People.wav" WAVE
INDEX 01 00:00:00
TRACK 11 AUDIO
TITLE "So Glad To Have You"
PERFORMER "Bettye Crutcher"
ISRC GB03A1300394
INDEX 00 04:25:70
FILE "11 - So Glad To Have You.wav" WAVE
INDEX 01 00:00:00
TRACK 12 AUDIO
TITLE "Don't You Think It's About Time"
PERFORMER "Bettye Crutcher"
ISRC GB03A1300395
INDEX 00 03:32:53
FILE "12 - Don't You Think It's About Time.wav" WAVE
INDEX 01 00:00:00
TRACK 13 AUDIO
TITLE "Make A Joyful Noise"
PERFORMER "Bettye Crutcher"
ISRC GB03A1300397
INDEX 00 03:25:12
FILE "13 - Make A Joyful Noise.wav" WAVE
INDEX 01 00:00:00
TRACK 14 AUDIO
TITLE "We've Got Love On Our Side"
PERFORMER "Bettye Crutcher"
ISRC GB03A1300396
INDEX 00 05:03:14
FILE "14 - We've Got Love On Our Side.wav" WAVE
INDEX 01 00:00:00
TRACK 15 AUDIO
TITLE "Walk On To Your New Love (Demo)"
PERFORMER "Bettye Crutcher"
ISRC GB03A1300398
INDEX 00 03:31:63
FILE "15 - Walk On To Your New Love (Demo).wav" WAVE
INDEX 01 00:00:00
TRACK 16 AUDIO
TITLE "I Forgive You (Demo)"
PERFORMER "Bettye Crutcher"
ISRC GB03A1300399
INDEX 00 03:36:06
FILE "16 - I Forgive You (Demo).wav" WAVE
INDEX 01 00:00:00
 
Лог проверки качества
AUDIOCHECKER v2.0 beta (build 457) - by Dester - opdester@freemail.hu
~~~~~~~~~~~~~~~~~~~~~~~~~~~~~~~~~~
-=== DO NOT EDIT THIS FILE! ===-
Path: ...\Bettye Crutcher 2013 - Long As You Love Me (1974)
01 -=- 01 - As Long As You Love Me.flac -=- CDDA (100%)
02 -=- 02 - When We're Together.flac -=- CDDA (100%)
03 -=- 03 - Passion.flac -=- CDDA (100%)
04 -=- 04 - A Little Bit More Won't Hurt.flac -=- CDDA (99%)
05 -=- 05 - Sunday Morning's Gonna Find Us In Love.flac -=- CDDA (100%)
06 -=- 06 - Sugar Daddy.flac -=- CDDA (100%)
07 -=- 07 - Call Me When All Else Fails.flac -=- CDDA (100%)
08 -=- 08 - Up For A Let Down.flac -=- CDDA (100%)
09 -=- 09 - So Lonely Without You.flac -=- CDDA (100%)
10 -=- 10 - Sleepy People.flac -=- CDDA (100%)
11 -=- 11 - So Glad To Have You.flac -=- CDDA (100%)
12 -=- 12 - Don't You Think It's About Time.flac -=- CDDA (99%)
13 -=- 13 - Make A Joyful Noise.flac -=- CDDA (100%)
14 -=- 14 - We've Got Love On Our Side.flac -=- CDDA (100%)
15 -=- 15 - Walk On To Your New Love (Demo).flac -=- CDDA (100%)
16 -=- 16 - I Forgive You (Demo).flac -=- CDDA (100%)
Summary 99,88% CDDA
258678580
 
Об исполнителе (группе)
Memphis native Bettye Crutcher attemped to get into professional songwriting at Hi Records, but when that didn’t work she found herself around the corner at the fameed Stax Records studio as a lyracist in 1967.
In Rob Bowman’s Soulsville U.S.A.: The Story of Stax Records, she lamented that at first the music writers didn’t take her seriously: “The only way I would get a song a on a session, I was just persistent. I mean, I was just there. They were going to listen to me until they got tired of me.” And Crutcher was persistent.
A nurse and and single parent of three sons, she would work all day, go home and cook dinner for her children, and then head to Stax, where she often would stay until 4 a.m. Her persistence paid off and Crutcher eventually joined with Homer Banks and Raymond Jackson to form the legendary “We Three” Stax songwriting team, who wrote, among other smash hits, Johnnie Taylor’s “Who’s Making Love,” which sold two million copies. In addition to writing with “We Three,” Crutcher wrote with Sir Mack Rice, Marvell Thomas, and Bobby Manuel. She also found time to record her own solo projects, inlcuding the LP Long As You Love Me.
 
Об альбоме (сборнике)
Sadly her name doesn't attract the attention it deserves given the late Bettye Crutcher was an immensely talented singer, songwriter and producer. Unfortunately good luck finding any real information on the woman, let along her wonderful solo LP.
The mid-1960s found Crutcher living in Memphis. A single parent raising three boys on her own, she paid her bills working as a full time nurse, but had a driving desire to make it in the music business. As a result she worked her medical job all day; fed and put her kids to bed, and then would write and record material into the early hours of the morning. A prolific songwriter she initially tried to score a contract with Hi Records but was turned down by the label. A 1966 audition with Stax didn't go much better with David Porter supposedly telling Crutcher that her material wasn't bluesy enough. A week later Crutcher returned with a slew of bluesy material and was signed on as a staff writer.
Teamed with Homer Banks and Raymond Jackson (known collectively as We Three), the trio almost immediately scored a massive hit in the form of Johnny Taylor's cover of 'Who's Making Love' and over the next three years became one of the biggest sources of hit material for Stax. following the breakup of the We Three writing team Crutcher continued to enjoy successes on her own. Those successes eventually saw Crutcher given an opportunity to record on her own.
Co-produced by Crutcher and longtime writing partner Mack Rice, 1974's "Long As You Love Me" was a pleasant surprise to me ears. Many folks make their names as songwriters due to the fact they simply couldn't cut it as performers, but it turns out Crutcher was an exception to the rule. Blessed with an attractive, if slightly underpowered voice Crutcher proved herself a more than capable performer on this set. While it wasn't a perfect comparison, on songs like 'Up for a Little Down' Crutcher came off sounding like a tougher Dionne Warwick - imagine Warwick with Memphis soul roots rather than her MOR orientation and you'd be in the ballpark ... Showcasing ten original songs (most co-written with Rice), the set was equally divided between ballads and more up tempo numbers. While ballads like 'Long As You Love Me' and 'Passion' were quite enjoyable, Crutcher was actually at her best on up tempo and slinkier numbers like the funky groover 'When We're Together', 'A Little Bit More Won't Hurt' and the top 40-ready 'Sugar Dady'. That said the set certainly had some limitations. Crutcher lacked the chops to handle a truly gritty song - check out her ragged performance on 'Sunday Morning's Gonna Find Us In Love' and the heavy orchestration occasionally threatened to drown her out (blame arranger Johnny Allen).
Приватный:
Нет (DHT включён)
Размер:
400.86 Мб (420,330,227 байт) » файлов: 28
Участники:
0 раздают, 0 качают (0 участников всего)
Внешние участники:
3 раздают, 1 качают (4 участников всего) [ Обновить ]
No seeders - write a personal message to user M0p94ok. Нет сидеров - пишите личное сообщение пользователю M0p94ok.
07:37
80
Нет комментариев. Ваш будет первым!