Поиск

(Soul, R&B) [CD] Richard "Dimples" Fields - Dimples (1981) - 2013, FLAC (tracks+.cue), lossless

(Soul, R&B) [CD] Richard "Dimples" Fields - Dimples (1981) - 2013, FLAC (tracks+.cue), lossless
Треклист:
Richard "Dimples" Fields - Dimples (1981) Жанр: Soul, R&B
Носитель: CD
Год издания: 2013
Издатель (лейбл): Solaris
Номер по каталогу: SOL-CD-1205
Аудиокодек: FLAC (*.flac)
Тип рипа: tracks+.cue
Битрейт аудио: lossless
Продолжительность: 39:39
Rip by JET 1
Наличие сканов в содержимом раздачи: да
Треклист:
01. I Like Your Lovin' (3:38)
02. Let Me Take You In My Arms Tonight (3:57)
03. Let The Lady Dance (5:19)
04. Lovely Lady (3:38)
05. In The Still Of The Night (I'll Remember) (3:45)
06. She's Got Papers On Me (6:39)
07. I've Got To Learn To Say No! (3:53)
08. Earth Angel (3:47)
09. Don't Ever Take Your Love (5:04)
 
 
Лог создания рипа
Exact Audio Copy V1.0 beta 3 from 29. August 2011
EAC extraction logfile from 23. December 2015, 15:30
Richard "Dimples" Fields / Dimples
Used drive : GENERIC CDRCB05 Adapter: 4 ID: 0
Read mode : Secure
Utilize accurate stream : Yes
Defeat audio cache : Yes
Make use of C2 pointers : No
Read offset correction : 102
Overread into Lead-In and Lead-Out : No
Fill up missing offset samples with silence : Yes
Delete leading and trailing silent blocks : No
Null samples used in CRC calculations : Yes
Used interface : Native Win32 interface for Win NT & 2000
Gap handling : Appended to previous track
Used output format : User Defined Encoder
Selected bitrate : 1024 kBit/s
Quality : High
Add ID3 tag : No
Command line compressor : C:\Program Files\FLAC\flac.exe
Additional command line options : -8 -V -T "ARTIST=%artist%" -T "TITLE=%title%" -T "ALBUM=%albumtitle%" -T "DATE=%year%" -T "TRACKNUMBER=%tracknr%" -T "GENRE=%genre%" -T "PERFORMER=%albuminterpret%" -T "COMPOSER=%composer%" %haslyrics%--tag-from-file=LYRICS="%lyricsfile%"%haslyrics% -T "ALBUMARTIST=%albumartist%" -T "DISCNUMBER=%cdnumber%" -T "TOTALDISCS=%totalcds%" -T "TOTALTRACKS=%numtracks%" -T "COMMENT=%comment%" %source% -o %dest%
TOC of the extracted CD
Track | Start | Length | Start sector | End sector
---------------------------------------------------------
1 | 0:00.00 | 3:38.05 | 0 | 16354
2 | 3:38.05 | 3:57.04 | 16355 | 34133
3 | 7:35.09 | 5:18.59 | 34134 | 58042
4 | 12:53.68 | 3:37.42 | 58043 | 74359
5 | 16:31.35 | 3:44.59 | 74360 | 91218
6 | 20:16.19 | 6:38.61 | 91219 | 121129
7 | 26:55.05 | 3:52.53 | 121130 | 138582
8 | 30:47.58 | 3:46.72 | 138583 | 155604
9 | 34:34.55 | 5:04.34 | 155605 | 178438
Track 1
Filename F:\WAV\Richard Dimples Fields • Dimples (1981) {Solaris}\01 - I Like Your Lovin'.wav
Pre-gap length 0:00:02.00
Peak level 100.0 %
Extraction speed 1.4 X
Track quality 100.0 %
Test CRC 98AE0BCF
Copy CRC 98AE0BCF
Cannot be verified as accurate (confidence 3) [51FBCE02], AccurateRip returned [77B58FF9] (AR v2)
Copy OK
Track 2
Filename F:\WAV\Richard Dimples Fields • Dimples (1981) {Solaris}\02 - Let Me Take You In My Arms Tonight.wav
Peak level 100.0 %
Extraction speed 1.4 X
Track quality 99.9 %
Test CRC F2DF1F21
Copy CRC F2DF1F21
Cannot be verified as accurate (confidence 3) [50BDE4B1], AccurateRip returned [6934C8EC] (AR v2)
Copy OK
Track 3
Filename F:\WAV\Richard Dimples Fields • Dimples (1981) {Solaris}\03 - Let The Lady Dance.wav
Peak level 100.0 %
Extraction speed 1.8 X
Track quality 100.0 %
Test CRC 226D1EA8
Copy CRC 226D1EA8
Cannot be verified as accurate (confidence 3) [411F6A95], AccurateRip returned [4D9CB8FC] (AR v2)
Copy OK
Track 4
Filename F:\WAV\Richard Dimples Fields • Dimples (1981) {Solaris}\04 - Lovely Lady.wav
Peak level 100.0 %
Extraction speed 1.9 X
Track quality 100.0 %
Test CRC FA84A83E
Copy CRC FA84A83E
Cannot be verified as accurate (confidence 3) [CD1479C0], AccurateRip returned [3E69146E] (AR v2)
Copy OK
Track 5
Filename F:\WAV\Richard Dimples Fields • Dimples (1981) {Solaris}\05 - In The Still Of The Night (I'll Remember).wav
Peak level 100.0 %
Extraction speed 1.7 X
Track quality 99.9 %
Test CRC 5C1F8892
Copy CRC 5C1F8892
Cannot be verified as accurate (confidence 3) [97F895B4], AccurateRip returned [DF7866F5] (AR v2)
Copy OK
Track 6
Filename F:\WAV\Richard Dimples Fields • Dimples (1981) {Solaris}\06 - She's Got Papers On Me.wav
Peak level 100.0 %
Extraction speed 2.2 X
Track quality 100.0 %
Test CRC F4C4E923
Copy CRC F4C4E923
Cannot be verified as accurate (confidence 3) [F917C1C4], AccurateRip returned [ED628DC0] (AR v2)
Copy OK
Track 7
Filename F:\WAV\Richard Dimples Fields • Dimples (1981) {Solaris}\07 - I've Got To Learn To Say No!.wav
Peak level 100.0 %
Extraction speed 2.0 X
Track quality 99.9 %
Test CRC EE5D0E86
Copy CRC EE5D0E86
Cannot be verified as accurate (confidence 3) [8C203C4D], AccurateRip returned [755E02A4] (AR v2)
Copy OK
Track 8
Filename F:\WAV\Richard Dimples Fields • Dimples (1981) {Solaris}\08 - Earth Angel.wav
Peak level 100.0 %
Extraction speed 2.4 X
Track quality 100.0 %
Test CRC DF6D0CEC
Copy CRC DF6D0CEC
Cannot be verified as accurate (confidence 3) [78B532E2], AccurateRip returned [98CF1962] (AR v2)
Copy OK
Track 9
Filename F:\WAV\Richard Dimples Fields • Dimples (1981) {Solaris}\09 - Don't Ever Take Your Love.wav
Peak level 100.0 %
Extraction speed 2.3 X
Track quality 99.9 %
Test CRC 85376F00
Copy CRC 85376F00
Cannot be verified as accurate (confidence 3) [26630AE4], AccurateRip returned [B5B68FB3] (AR v2)
Copy OK
No tracks could be verified as accurate
You may have a different pressing from the one(s) in the database
No errors occurred
End of status report
==== Log checksum 6D1C0184B97AFB739BDA630FC46A9814A6CBB348507C78C67BD6E24E5A08943A ====
 
Содержание индексной карты (.CUE)
REM GENRE R&B
REM DATE 1981
REM DISCID 7E094B09
REM COMMENT "ExactAudioCopy v1.0b3"
PERFORMER "Richard ''Dimples'' Fields"
TITLE "Dimples"
FILE "01 - I Like Your Lovin'.wav" WAVE
TRACK 01 AUDIO
TITLE "I Like Your Lovin'"
PERFORMER "Richard ''Dimples'' Fields"
FLAGS DCP
INDEX 01 00:00:00
FILE "02 - Let Me Take You In My Arms Tonight.wav" WAVE
TRACK 02 AUDIO
TITLE "Let Me Take You In My Arms Tonight"
PERFORMER "Richard ''Dimples'' Fields"
FLAGS DCP
INDEX 01 00:00:00
FILE "03 - Let The Lady Dance.wav" WAVE
TRACK 03 AUDIO
TITLE "Let The Lady Dance"
PERFORMER "Richard ''Dimples'' Fields"
FLAGS DCP
INDEX 01 00:00:00
FILE "04 - Lovely Lady.wav" WAVE
TRACK 04 AUDIO
TITLE "Lovely Lady"
PERFORMER "Richard ''Dimples'' Fields"
FLAGS DCP
INDEX 01 00:00:00
FILE "05 - In The Still Of The Night (I'll Remember).wav" WAVE
TRACK 05 AUDIO
TITLE "In The Still Of The Night (I'll Remember)"
PERFORMER "Richard ''Dimples'' Fields"
FLAGS DCP
INDEX 01 00:00:00
FILE "06 - She's Got Papers On Me.wav" WAVE
TRACK 06 AUDIO
TITLE "She's Got Papers On Me"
PERFORMER "Richard ''Dimples'' Fields"
FLAGS DCP
INDEX 01 00:00:00
FILE "07 - I've Got To Learn To Say No!.wav" WAVE
TRACK 07 AUDIO
TITLE "I've Got To Learn To Say No!"
PERFORMER "Richard ''Dimples'' Fields"
FLAGS DCP
INDEX 01 00:00:00
FILE "08 - Earth Angel.wav" WAVE
TRACK 08 AUDIO
TITLE "Earth Angel"
PERFORMER "Richard ''Dimples'' Fields"
FLAGS DCP
INDEX 01 00:00:00
FILE "09 - Don't Ever Take Your Love.wav" WAVE
TRACK 09 AUDIO
TITLE "Don't Ever Take Your Love"
PERFORMER "Richard ''Dimples'' Fields"
FLAGS DCP
INDEX 01 00:00:00
Приватный:
Нет (DHT включён)
Размер:
331.98 Мб (348,101,782 байт) » файлов: 19
Участники:
0 раздают, 0 качают (0 участников всего)
Внешние участники:
2 раздают, 1 качают (3 участников всего) [ Обновить ]
Есть вопросы - пишите личное сообщение пользователю M0p94ok.
09:16
77
Нет комментариев. Ваш будет первым!