Поиск

(Soul, R&B) [CD] Maria Howell - Same Old Story - 2000, FLAC (tracks+.cue), lossless

(Soul, R&B) [CD] Maria Howell - Same Old Story - 2000, FLAC (tracks+.cue), lossless
Треклист:
Maria Howell - Same Old Story Жанр: Soul, R&B
Носитель: CD
Год издания: 2000
Издатель (лейбл): High Wave
Номер по каталогу: HICC-1007
Аудиокодек: FLAC (*.flac)
Тип рипа: tracks+.cue
Битрейт аудио: lossless
Продолжительность: 40:56
Rip by JET 1
Наличие сканов в содержимом раздачи: да
Треклист:
01. Good Evening - Intro (0:57)
02. I Got It Bad (4:12)
03. Please Understand (4:03)
04. Same Old Story (3:56)
05. Turn It Around (5:28)
06. To Sir, With Love (3:39)
07. Come Into My World - Interlude (1:03)
08. I Am The One (4:17)
09. Let's Get Involved (4:49)
10. Think Of Me (4:24)
11. Where Do We Go (4:08)
 
 
Лог создания рипа
Exact Audio Copy V1.0 beta 3 from 29. August 2011
EAC extraction logfile from 28. April 2015, 16:21
Maria Howell / Same Old Story
Used drive : GENERIC CDRCB05 Adapter: 4 ID: 0
Read mode : Secure
Utilize accurate stream : Yes
Defeat audio cache : Yes
Make use of C2 pointers : No
Read offset correction : 102
Overread into Lead-In and Lead-Out : No
Fill up missing offset samples with silence : Yes
Delete leading and trailing silent blocks : No
Null samples used in CRC calculations : Yes
Used interface : Native Win32 interface for Win NT & 2000
Gap handling : Appended to previous track
Used output format : User Defined Encoder
Selected bitrate : 1024 kBit/s
Quality : High
Add ID3 tag : No
Command line compressor : C:\Program Files\FLAC\flac.exe
Additional command line options : -8 -V -T "ARTIST=%artist%" -T "TITLE=%title%" -T "ALBUM=%albumtitle%" -T "DATE=%year%" -T "TRACKNUMBER=%tracknr%" -T "GENRE=%genre%" -T "PERFORMER=%albuminterpret%" -T "COMPOSER=%composer%" %haslyrics%--tag-from-file=LYRICS="%lyricsfile%"%haslyrics% -T "ALBUMARTIST=%albumartist%" -T "DISCNUMBER=%cdnumber%" -T "TOTALDISCS=%totalcds%" -T "TOTALTRACKS=%numtracks%" -T "COMMENT=%comment%" %source% -o %dest%
TOC of the extracted CD
Track | Start | Length | Start sector | End sector
---------------------------------------------------------
1 | 0:00.00 | 0:56.40 | 0 | 4239
2 | 0:56.40 | 4:12.15 | 4240 | 23154
3 | 5:08.55 | 4:03.23 | 23155 | 41402
4 | 9:12.03 | 3:56.32 | 41403 | 59134
5 | 13:08.35 | 5:27.40 | 59135 | 83699
6 | 18:36.00 | 3:38.55 | 83700 | 100104
7 | 22:14.55 | 1:03.10 | 100105 | 104839
8 | 23:17.65 | 4:17.23 | 104840 | 124137
9 | 27:35.13 | 4:49.07 | 124138 | 145819
10 | 32:24.20 | 4:23.68 | 145820 | 165612
11 | 36:48.13 | 4:07.67 | 165613 | 184204
Track 1
Filename H:\0\..................00\post\Maria Howell - Same Old Story (2000)\01 - Good Evening-Intro.wav
Pre-gap length 0:00:02.00
Peak level 95.6 %
Extraction speed 1.5 X
Track quality 100.0 %
Test CRC 55E0AB4B
Copy CRC 55E0AB4B
Track not present in AccurateRip database
Copy OK
Track 2
Filename H:\0\..................00\post\Maria Howell - Same Old Story (2000)\02 - I Got It Bad.wav
Peak level 99.2 %
Extraction speed 2.4 X
Track quality 100.0 %
Test CRC A90F4A7D
Copy CRC A90F4A7D
Track not present in AccurateRip database
Copy OK
Track 3
Filename H:\0\..................00\post\Maria Howell - Same Old Story (2000)\03 - Please Understand.wav
Pre-gap length 0:00:01.50
Peak level 99.2 %
Extraction speed 2.6 X
Track quality 100.0 %
Test CRC 40147620
Copy CRC 40147620
Track not present in AccurateRip database
Copy OK
Track 4
Filename H:\0\..................00\post\Maria Howell - Same Old Story (2000)\04 - Same Old Story.wav
Pre-gap length 0:00:02.50
Peak level 99.2 %
Extraction speed 2.9 X
Track quality 100.0 %
Test CRC F2DC8138
Copy CRC F2DC8138
Track not present in AccurateRip database
Copy OK
Track 5
Filename H:\0\..................00\post\Maria Howell - Same Old Story (2000)\05 - Turn It Around.wav
Pre-gap length 0:00:01.52
Peak level 99.2 %
Extraction speed 3.1 X
Track quality 100.0 %
Test CRC 13C5CC26
Copy CRC 13C5CC26
Track not present in AccurateRip database
Copy OK
Track 6
Filename H:\0\..................00\post\Maria Howell - Same Old Story (2000)\06 - To Sir, With Love.wav
Pre-gap length 0:00:01.47
Peak level 99.2 %
Extraction speed 3.2 X
Track quality 100.0 %
Test CRC 61A0BE71
Copy CRC 61A0BE71
Track not present in AccurateRip database
Copy OK
Track 7
Filename H:\0\..................00\post\Maria Howell - Same Old Story (2000)\07 - Come Into My World - Interlude.wav
Pre-gap length 0:00:02.50
Peak level 99.2 %
Extraction speed 2.3 X
Track quality 100.0 %
Test CRC 29160A19
Copy CRC 29160A19
Track not present in AccurateRip database
Copy OK
Track 8
Filename H:\0\..................00\post\Maria Howell - Same Old Story (2000)\08 - I Am The One.wav
Peak level 99.2 %
Extraction speed 3.0 X
Track quality 99.9 %
Test CRC E0ECF91C
Copy CRC E0ECF91C
Track not present in AccurateRip database
Copy OK
Track 9
Filename H:\0\..................00\post\Maria Howell - Same Old Story (2000)\09 - Let's Get Involved.wav
Pre-gap length 0:00:01.48
Peak level 99.2 %
Extraction speed 3.7 X
Track quality 100.0 %
Test CRC CC147735
Copy CRC CC147735
Track not present in AccurateRip database
Copy OK
Track 10
Filename H:\0\..................00\post\Maria Howell - Same Old Story (2000)\10 - Think Of Me.wav
Pre-gap length 0:00:02.47
Peak level 99.2 %
Extraction speed 3.4 X
Track quality 99.9 %
Test CRC 98181057
Copy CRC 98181057
Track not present in AccurateRip database
Copy OK
Track 11
Filename H:\0\..................00\post\Maria Howell - Same Old Story (2000)\11 - Where Do We Go.wav
Pre-gap length 0:00:02.50
Peak level 99.2 %
Extraction speed 4.0 X
Track quality 100.0 %
Test CRC 59B7F4C5
Copy CRC 59B7F4C5
Track not present in AccurateRip database
Copy OK
None of the tracks are present in the AccurateRip database
No errors occurred
End of status report
==== Log checksum F3F202E7AAF63609148CF299F56933ED7009A8A98482062C7175352281946F9E ====
 
Содержание индексной карты (.CUE)
REM GENRE R&B, Soul
REM DATE 2000
REM DISCID 8B09980B
REM COMMENT "ExactAudioCopy v1.0b3"
PERFORMER "Maria Howell"
TITLE "Same Old Story"
FILE "01 - Good Evening - Intro.wav" WAVE
TRACK 01 AUDIO
TITLE "Good Evening - Intro"
PERFORMER "Maria Howell"
INDEX 01 00:00:00
FILE "02 - I Got It Bad.wav" WAVE
TRACK 02 AUDIO
TITLE "I Got It Bad"
PERFORMER "Maria Howell"
INDEX 01 00:00:00
TRACK 03 AUDIO
TITLE "Please Understand"
PERFORMER "Maria Howell"
INDEX 00 04:10:40
FILE "03 - Please Understand.wav" WAVE
INDEX 01 00:00:00
TRACK 04 AUDIO
TITLE "Same Old Story"
PERFORMER "Maria Howell"
INDEX 00 04:00:48
FILE "04 - Same Old Story.wav" WAVE
INDEX 01 00:00:00
TRACK 05 AUDIO
TITLE "Turn It Around"
PERFORMER "Maria Howell"
INDEX 00 03:54:55
FILE "05 - Turn It Around.wav" WAVE
INDEX 01 00:00:00
TRACK 06 AUDIO
TITLE "To Sir, With Love"
PERFORMER "Maria Howell"
INDEX 00 05:25:68
FILE "06 - To Sir, With Love.wav" WAVE
INDEX 01 00:00:00
TRACK 07 AUDIO
TITLE "Come Into My World - Interlude"
PERFORMER "Maria Howell"
INDEX 00 03:36:05
FILE "07 - Come Into My World - Interlude.wav" WAVE
INDEX 01 00:00:00
FILE "08 - I Am The One.wav" WAVE
TRACK 08 AUDIO
TITLE "I Am The One"
PERFORMER "Maria Howell"
INDEX 01 00:00:00
TRACK 09 AUDIO
TITLE "Let's Get Involved"
PERFORMER "Maria Howell"
INDEX 00 04:15:50
FILE "09 - Let's Get Involved.wav" WAVE
INDEX 01 00:00:00
TRACK 10 AUDIO
TITLE "Think Of Me"
PERFORMER "Maria Howell"
INDEX 00 04:46:35
FILE "10 - Think Of Me.wav" WAVE
INDEX 01 00:00:00
TRACK 11 AUDIO
TITLE "Where Do We Go"
PERFORMER "Maria Howell"
INDEX 00 04:21:18
FILE "11 - Where Do We Go.wav" WAVE
INDEX 01 00:00:00
Приватный:
Нет (DHT включён)
Размер:
405.85 Мб (425,560,578 байт) » файлов: 26
Участники:
0 раздают, 0 качают (0 участников всего)
Внешние участники:
2 раздают, 1 качают (3 участников всего) [ Обновить ]
Есть вопросы - пишите личное сообщение пользователю M0p94ok.
05:45
76
Нет комментариев. Ваш будет первым!