Поиск

(Funk, Soul, Crossover) [CD] Don Randi & Quest - New Baby - 1979 (Sheffield lab), APE (image+.cue), lossless

Треклист:
Don Randi & Quest - New Baby
Жанр: Funk, Soul, Crossover
Носитель: CD
Страна-производитель диска (релиза): USA
Год издания: 1979
Издатель (лейбл): Sheffield lab
Номер по каталогу: 10012-2-V
Страна исполнителя (группы): USA
Аудиокодек: APE (*.ape)
Тип рипа: image+.cue
Битрейт аудио: lossless
Продолжительность: 00:34:09
Источник (релизер): СПАМ
Наличие сканов в содержимом раздачи: да
Треклист:
01 - Little Children
02 - New Baby
03 - If You Need It
04 - Funkin' Around
05 - Easy
06 - Norwegian Wood
07 - Salsalido
08 - Little Children (reprise)
Банда:
Bass Guitar - Frank Fabio
Drums - Miles Robinson
Flugelhorn - Ralf Rickert
Flute - Chuck Camper
Guitar - Frank Fabio
Keyboards - Don Randi
Saxophone - Chuck Camper
Trumpet - Ralf Rickert
 
Лог создания рипа
Exact Audio Copy V0.99 prebeta 4 from 23. January 2008
EAC extraction logfile from 26. March 2009, 10:45
Don Randi & Quest / New Baby - CD-12
Used drive : BENQ DVD DC DW2010 Adapter: 1 ID: 0
Read mode : Secure
Utilize accurate stream : Yes
Defeat audio cache : Yes
Make use of C2 pointers : No
Read offset correction : 6
Overread into Lead-In and Lead-Out : No
Fill up missing offset samples with silence : Yes
Delete leading and trailing silent blocks : No
Null samples used in CRC calculations : Yes
Used interface : Native Win32 interface for Win NT & 2000
Used output format : Monkey's Audio Lossless Encoder v3.99 DLL
Selected bitrate : High Lossless Compression
Quality : High
Add ID3 tag : Yes
Command line compressor : C:\Program Files\Monkey's Audio\Monkey's Audio.exe
TOC of the extracted CD
Track | Start | Length | Start sector | End sector
---------------------------------------------------------
1 | 0:00.00 | 3:26.42 | 0 | 15491
2 | 3:26.42 | 4:08.28 | 15492 | 34119
3 | 7:34.70 | 6:06.70 | 34120 | 61639
4 | 13:41.65 | 2:56.30 | 61640 | 74869
5 | 16:38.20 | 3:25.62 | 74870 | 90306
6 | 20:04.07 | 4:46.13 | 90307 | 111769
7 | 24:50.20 | 4:39.72 | 111770 | 132766
8 | 29:30.17 | 4:39.20 | 132767 | 153711
Range status and errors
Selected range
Filename C:\Sheffield\CD-12\Don Randi & Quest - New Baby - CD-12.ape
Peak level 100.0 %
Range quality 100.0 %
Test CRC 35EDB0B0
Copy CRC 35EDB0B0
Copy OK
No errors occurred
AccurateRip summary
Track 1 not present in database
Track 2 not present in database
Track 3 not present in database
Track 4 not present in database
Track 5 not present in database
Track 6 not present in database
Track 7 not present in database
Track 8 not present in database
None of the tracks are present in the AccurateRip database
End of status report
Приватный:
Нет (DHT включён)
Размер:
186.13 Мб (195,174,137 байт) » файлов: 10
Участники:
0 раздают, 0 качают (0 участников всего)
Внешние участники:
2 раздают, 1 качают (3 участников всего) [ Обновить ]
No seeders - write personal message to user M0p94ok. Нет сидеров - пишите личное сообщение пользователю M0p94ok.
05:46
54
Нет комментариев. Ваш будет первым!