Поиск

(Soul, R&B) [CD] Linda Lewis - Lark (1972) - 2012, FLAC (tracks+.cue), lossless

(Soul, R&B) [CD] Linda Lewis - Lark (1972) - 2012, FLAC (tracks+.cue), lossless
Треклист:
Linda Lewis - Lark (1972) Жанр: Soul, R&B
Носитель: CD
Год издания: 2012
Издатель (лейбл): Reprise/Big Break Records/Cherry Red Records
Номер по каталогу: CDBBR 0092
Аудиокодек: FLAC (*.flac)
Тип рипа: tracks+.cue
Битрейт аудио: lossless
Продолжительность: 43:55
Источник (релизер): ruskaval
Наличие сканов в содержимом раздачи: да
Треклист:
01. Spring Song (2:09)
02. Reach For The Truth (4:50)
03. It's The Frame (3:39)
04. Feeling Feeling (3:06)
05. What Are You Asking Me For (2:52)
06. Lark (4:30)
07. Old Smokey (3:22)
08. Gladly Give My Hand (2:42)
09. More Than A Fool (3:26)
10. Been My Best (2:52)
11. Waterbaby (3:57)
12. Little Indians (3:09)
13. Rock A Doodle Do (3:21)
Personnel:
Linda Lewis - vocals, guitar, electric piano, guiro, tambourine, wind chimes
Jim Cregan - guitars
Emile Latimer - percussion
Pat Donaldson - bass
Gerry Conway - drums
Jean Rouselle - piano, electric piano, organ, marimba
Eric Oxendine - bass
Poli Palmer - vibes, marimba, flute
Paul Williams - guitar
Michael Eve - saxophone
 
 
Несколько слов на английском
Few artists can fuse genres as effortlessly as Linda Lewis. Gifted with an incredible 5 octave vocal range, her unique sound contains elements of Folk, Soul, Pop and Rock and has won the admiration of artists from Stevie Wonder to Paul Weller, Jamiroquai and Noel Gallagher, who Linda recently recorded backing vocals for.
LARK, released in 1972, was Linda’s first with producer Jim Cregan. The album featured a number of enduring favourite tracks, with OLD SMOKEY and REACH FOR THE TRUTH in particular becoming signature songs. In recent years, samples from these tracks have appeared in singles by hip-hop artist COMMON and electronic artist MIDFIELD GENERAL, introducing a new generation of listeners to Linda’s work.
Bonus track ROCK A DOODLE DOO gave Linda her first UK Top 20 hit single. It became one of her best-known songs and also featured in Linda’s set this summer at Glastonbury, celebrating the 40th Anniversary of both the Festival itself as well as her own debut performance there.
 
 
Лог создания рипа
Exact Audio Copy V1.0 beta 3 from 29. August 2011
EAC extraction logfile from 26. January 2014, 17:49
Linda Lewis / Lark
Used drive : TSSTcorp CDDVDW Adapter: 0 ID: 0
Read mode : Secure
Utilize accurate stream : Yes
Defeat audio cache : Yes
Make use of C2 pointers : No
Read offset correction : 6
Overread into Lead-In and Lead-Out : No
Fill up missing offset samples with silence : Yes
Delete leading and trailing silent blocks : No
Null samples used in CRC calculations : Yes
Used interface : Native Win32 interface for Win NT & 2000
Gap handling : Appended to previous track
Used output format : User Defined Encoder
Selected bitrate : 128 kBit/s
Quality : High
Add ID3 tag : No
Command line compressor : C:\Program Files (x86)\Exact Audio Copy\Flac\flac.exe
Additional command line options : -8 -V -T "ARTIST=%artist%" -T "TITLE=%title%" -T "ALBUM=%albumtitle%" -T "DATE=%year%" -T "TRACKNUMBER=%tracknr%" -T "TOTALTRACKS=%numtracks%" -T "GENRE=%genre%" -T "ALBUMARTIST=%albumartist%" -T "ALBUM ARTIST=%albumartist%" -T "COMMENT=EAC Secure Mode, Test & Copy, AccurateRip, FLAC -8" %source%
TOC of the extracted CD
Track | Start | Length | Start sector | End sector
---------------------------------------------------------
1 | 0:00.00 | 2:09.08 | 0 | 9682
2 | 2:09.08 | 4:50.25 | 9683 | 31457
3 | 6:59.33 | 3:38.70 | 31458 | 47877
4 | 10:38.28 | 3:06.20 | 47878 | 61847
5 | 13:44.48 | 2:52.14 | 61848 | 74761
6 | 16:36.62 | 4:30.27 | 74762 | 95038
7 | 21:07.14 | 3:21.56 | 95039 | 110169
8 | 24:28.70 | 2:41.65 | 110170 | 122309
9 | 27:10.60 | 3:25.39 | 122310 | 137723
10 | 30:36.24 | 2:52.05 | 137724 | 150628
11 | 33:28.29 | 3:56.43 | 150629 | 168371
12 | 37:24.72 | 3:08.48 | 168372 | 182519
13 | 40:33.45 | 3:21.18 | 182520 | 197612
Track 1
Filename C:\AddisistheGodFlac\01 - Spring Song.wav
Pre-gap length 0:00:02.00
Peak level 96.6 %
Extraction speed 1.7 X
Track quality 99.9 %
Test CRC 33C80E76
Copy CRC 33C80E76
Accurately ripped (confidence 2) [3C1A82FB] (AR v2)
Copy OK
Track 2
Filename C:\AddisistheGodFlac\02 - Reach For The Truth.wav
Pre-gap length 0:00:01.22
Peak level 96.6 %
Extraction speed 3.0 X
Track quality 100.0 %
Test CRC E9C967BF
Copy CRC E9C967BF
Accurately ripped (confidence 2) [1BA23AF3] (AR v2)
Copy OK
Track 3
Filename C:\AddisistheGodFlac\03 - It's The Frame.wav
Pre-gap length 0:00:00.57
Peak level 95.1 %
Extraction speed 3.1 X
Track quality 100.0 %
Test CRC 83ADCE0B
Copy CRC 83ADCE0B
Accurately ripped (confidence 2) [4D48008A] (AR v2)
Copy OK
Track 4
Filename C:\AddisistheGodFlac\04 - Feeling Feeling.wav
Peak level 96.6 %
Extraction speed 2.5 X
Track quality 99.9 %
Test CRC 226C20DB
Copy CRC 226C20DB
Accurately ripped (confidence 2) [2DD0AA3F] (AR v2)
Copy OK
Track 5
Filename C:\AddisistheGodFlac\05 - What Are You Asking Me For.wav
Pre-gap length 0:00:01.47
Peak level 96.6 %
Extraction speed 3.4 X
Track quality 100.0 %
Test CRC CC585457
Copy CRC CC585457
Accurately ripped (confidence 2) [9C36ACE6] (AR v2)
Copy OK
Track 6
Filename C:\AddisistheGodFlac\06 - Lark.wav
Pre-gap length 0:00:01.27
Peak level 95.9 %
Extraction speed 3.8 X
Track quality 100.0 %
Test CRC ECCCC494
Copy CRC ECCCC494
Accurately ripped (confidence 2) [1A28806C] (AR v2)
Copy OK
Track 7
Filename C:\AddisistheGodFlac\07 - Old Smokey.wav
Peak level 96.6 %
Extraction speed 3.8 X
Track quality 100.0 %
Test CRC 59DDAA89
Copy CRC 59DDAA89
Accurately ripped (confidence 2) [B648E689] (AR v2)
Copy OK
Track 8
Filename C:\AddisistheGodFlac\08 - Gladly Give My Hand.wav
Peak level 96.6 %
Extraction speed 3.8 X
Track quality 100.0 %
Test CRC 8A579E8A
Copy CRC 8A579E8A
Accurately ripped (confidence 2) [84D6B04A] (AR v2)
Copy OK
Track 9
Filename C:\AddisistheGodFlac\09 - More Than A Fool.wav
Pre-gap length 0:00:00.61
Peak level 96.6 %
Extraction speed 3.3 X
Track quality 99.9 %
Test CRC 0DCAA516
Copy CRC 0DCAA516
Accurately ripped (confidence 2) [506984D1] (AR v2)
Copy OK
Track 10
Filename C:\AddisistheGodFlac\10 - Been My Best.wav
Pre-gap length 0:00:00.41
Peak level 96.6 %
Extraction speed 4.2 X
Track quality 100.0 %
Test CRC FBB3C8F5
Copy CRC FBB3C8F5
Accurately ripped (confidence 2) [27DF527A] (AR v2)
Copy OK
Track 11
Filename C:\AddisistheGodFlac\11 - Waterbaby.wav
Peak level 96.6 %
Extraction speed 4.5 X
Track quality 100.0 %
Test CRC 1D456419
Copy CRC 1D456419
Accurately ripped (confidence 2) [21CD05D7] (AR v2)
Copy OK
Track 12
Filename C:\AddisistheGodFlac\12 - Little Indians.wav
Pre-gap length 0:00:00.61
Peak level 96.6 %
Extraction speed 4.5 X
Track quality 100.0 %
Test CRC 6830E1AB
Copy CRC 6830E1AB
Accurately ripped (confidence 2) [0139F239] (AR v2)
Copy OK
Track 13
Filename C:\AddisistheGodFlac\13 - Rock A Doodle Do.wav
Pre-gap length 0:00:03.49
Peak level 96.6 %
Extraction speed 4.7 X
Track quality 100.0 %
Test CRC AA9BCB75
Copy CRC AA9BCB75
Accurately ripped (confidence 2) [70BA533C] (AR v2)
Copy OK
All tracks accurately ripped
No errors occurred
End of status report
==== Log checksum 669B6C46B20F6483798FD5AC9C6E5DF6AF1354DC9A3B3339873043B272D0D55B ====
 
Содержание индексной карты (.CUE)
REM GENRE Soul
REM DATE 1972
REM DISCID 9F0A4A0D
REM COMMENT "ExactAudioCopy v1.0b3"
PERFORMER "Linda Lewis"
TITLE "Lark"
FILE "01 - Spring Song.wav" WAVE
TRACK 01 AUDIO
TITLE "Spring Song"
PERFORMER "Linda Lewis"
INDEX 01 00:00:00
TRACK 02 AUDIO
TITLE "Reach For The Truth"
PERFORMER "Linda Lewis"
INDEX 00 02:07:61
FILE "02 - Reach For The Truth.wav" WAVE
INDEX 01 00:00:00
TRACK 03 AUDIO
TITLE "It's The Frame"
PERFORMER "Linda Lewis"
INDEX 00 04:49:43
FILE "03 - It's The Frame.wav" WAVE
INDEX 01 00:00:00
FILE "04 - Feeling Feeling.wav" WAVE
TRACK 04 AUDIO
TITLE "Feeling Feeling"
PERFORMER "Linda Lewis"
INDEX 01 00:00:00
TRACK 05 AUDIO
TITLE "What Are You Asking Me For"
PERFORMER "Linda Lewis"
INDEX 00 03:04:48
FILE "05 - What Are You Asking Me For.wav" WAVE
INDEX 01 00:00:00
TRACK 06 AUDIO
TITLE "Lark"
PERFORMER "Linda Lewis"
INDEX 00 02:50:62
FILE "06 - Lark.wav" WAVE
INDEX 01 00:00:00
FILE "07 - Old Smokey.wav" WAVE
TRACK 07 AUDIO
TITLE "Old Smokey"
PERFORMER "Linda Lewis"
INDEX 01 00:00:00
FILE "08 - Gladly Give My Hand.wav" WAVE
TRACK 08 AUDIO
TITLE "Gladly Give My Hand"
PERFORMER "Linda Lewis"
INDEX 01 00:00:00
TRACK 09 AUDIO
TITLE "More Than A Fool"
PERFORMER "Linda Lewis"
INDEX 00 02:41:04
FILE "09 - More Than A Fool.wav" WAVE
INDEX 01 00:00:00
TRACK 10 AUDIO
TITLE "Been My Best"
PERFORMER "Linda Lewis"
INDEX 00 03:24:73
FILE "10 - Been My Best.wav" WAVE
INDEX 01 00:00:00
FILE "11 - Waterbaby.wav" WAVE
TRACK 11 AUDIO
TITLE "Waterbaby"
PERFORMER "Linda Lewis"
INDEX 01 00:00:00
TRACK 12 AUDIO
TITLE "Little Indians"
PERFORMER "Linda Lewis"
INDEX 00 03:55:57
FILE "12 - Little Indians.wav" WAVE
INDEX 01 00:00:00
TRACK 13 AUDIO
TITLE "Rock A Doodle Do"
PERFORMER "Linda Lewis"
INDEX 00 03:04:74
FILE "13 - Rock A Doodle Do.wav" WAVE
INDEX 01 00:00:00
Приватный:
Нет (DHT включён)
Размер:
310.02 Мб (325,077,255 байт) » файлов: 28
Участники:
0 раздают, 0 качают (0 участников всего)
Внешние участники:
2 раздают, 1 качают (3 участников всего) [ Обновить ]
No seeders - write a personal message to user M0p94ok. Нет сидеров - пишите личное сообщение пользователю M0p94ok.
13:03
106
Нет комментариев. Ваш будет первым!