Поиск

(Funk, Soul) [CD] Me'Shell NdegéOcello (MeShell NdegeOcello) - Peace Beyond Passion - 1996, FLAC (tracks+.cue), lossless

(Funk, Soul) [CD] Me'Shell NdegéOcello (MeShell NdegeOcello) - Peace Beyond Passion - 1996, FLAC (tracks+.cue), lossless
Треклист:
Me'Shell NdegéOcello - Peace Beyond Passion Жанр: Funk, Soul
Носитель: CD
Год издания: 1996
Издатель (лейбл): Maverick/Reprise
Номер по каталогу: 9 46033-2
Аудиокодек: FLAC (*.flac)
Тип рипа: tracks+.cue
Битрейт аудио: lossless
Продолжительность: 59:15
Источник (релизер): TestTickles
Наличие сканов в содержимом раздачи: да
Треклист:
01. The Womb (1:26)
02. The Way (4:58)
03. Deuteronomy: Niggerman (4:01)
04. Ecclesiastes: Free My Heart (5:22)
05. Leviticus: Faggot (6:09)
06. Mary Magdalene (5:52)
07. God Shiva (4:09)
08. Who Is He And What Is He To You (4:50)
09. Stay (4:30)
10. Bittersweet (5:18)
11. A Tear And A Smile (3:50)
12. Make Me Wanna Holler (8:51)
 
 
Лог создания рипа
Exact Audio Copy V1.1 from 23. June 2015
EAC extraction logfile from 4. February 2017, 14:36
Me'Shell NdegéOcello / Peace Beyond Passion
Used drive : TEAC DVD-ROM DV-28SW Adapter: 1 ID: 0
Read mode : Secure
Utilize accurate stream : Yes
Defeat audio cache : Yes
Make use of C2 pointers : No
Read offset correction : 6
Overread into Lead-In and Lead-Out : No
Fill up missing offset samples with silence : Yes
Delete leading and trailing silent blocks : No
Null samples used in CRC calculations : Yes
Used interface : Native Win32 interface for Win NT & 2000
Gap handling : Appended to previous track
Used output format : Internal WAV Routines
Sample format : 44.100 Hz; 16 Bit; Stereo
TOC of the extracted CD
Track | Start | Length | Start sector | End sector
---------------------------------------------------------
1 | 0:00.32 | 1:25.45 | 32 | 6451
2 | 1:26.02 | 4:58.20 | 6452 | 28821
3 | 6:24.22 | 4:01.33 | 28822 | 46929
4 | 10:25.55 | 5:22.20 | 46930 | 71099
5 | 15:48.00 | 6:08.47 | 71100 | 98746
6 | 21:56.47 | 5:51.38 | 98747 | 125109
7 | 27:48.10 | 4:09.12 | 125110 | 143796
8 | 31:57.22 | 4:49.48 | 143797 | 165519
9 | 36:46.70 | 4:30.35 | 165520 | 185804
10 | 41:17.30 | 5:17.42 | 185805 | 209621
11 | 46:34.72 | 3:49.60 | 209622 | 226856
12 | 50:24.57 | 8:51.05 | 226857 | 266686
Track 1
Filename C:\My Documents\My FLAC\Me'Shell NdegéOcello - Peace Beyond Passion (1996) [FLAC] {Maverick}\01 - The Womb.wav
Pre-gap length 0:00:02.32
Peak level 97.7 %
Extraction speed 2.1 X
Track quality 100.0 %
Test CRC BD25F7CD
Copy CRC BD25F7CD
Accurately ripped (confidence 44) [8418FCB9] (AR v2)
Copy OK
Track 2
Filename C:\My Documents\My FLAC\Me'Shell NdegéOcello - Peace Beyond Passion (1996) [FLAC] {Maverick}\02 - The Way.wav
Pre-gap length 0:00:00.02
Peak level 95.5 %
Extraction speed 2.9 X
Track quality 100.0 %
Test CRC EF0B8FAE
Copy CRC EF0B8FAE
Accurately ripped (confidence 45) [4E2A2989] (AR v2)
Copy OK
Track 3
Filename C:\My Documents\My FLAC\Me'Shell NdegéOcello - Peace Beyond Passion (1996) [FLAC] {Maverick}\03 - Deuteronomy- Niggerman.wav
Pre-gap length 0:00:00.02
Peak level 97.7 %
Extraction speed 3.2 X
Track quality 100.0 %
Test CRC 515A9A99
Copy CRC 515A9A99
Accurately ripped (confidence 45) [593258DD] (AR v2)
Copy OK
Track 4
Filename C:\My Documents\My FLAC\Me'Shell NdegéOcello - Peace Beyond Passion (1996) [FLAC] {Maverick}\04 - Ecclesiastes- From My Heart.wav
Pre-gap length 0:00:00.03
Peak level 95.5 %
Extraction speed 3.7 X
Track quality 100.0 %
Test CRC 725FC428
Copy CRC 725FC428
Accurately ripped (confidence 46) [2A941D18] (AR v2)
Copy OK
Track 5
Filename C:\My Documents\My FLAC\Me'Shell NdegéOcello - Peace Beyond Passion (1996) [FLAC] {Maverick}\05 - Leviticus- Faggot.wav
Pre-gap length 0:00:00.03
Peak level 95.1 %
Extraction speed 4.0 X
Track quality 100.0 %
Test CRC A3A0A096
Copy CRC A3A0A096
Accurately ripped (confidence 45) [1477A855] (AR v2)
Copy OK
Track 6
Filename C:\My Documents\My FLAC\Me'Shell NdegéOcello - Peace Beyond Passion (1996) [FLAC] {Maverick}\06 - Mary Magdalene.wav
Pre-gap length 0:00:00.02
Peak level 95.5 %
Extraction speed 4.2 X
Track quality 100.0 %
Test CRC 05040607
Copy CRC 05040607
Accurately ripped (confidence 45) [A1A5515B] (AR v2)
Copy OK
Track 7
Filename C:\My Documents\My FLAC\Me'Shell NdegéOcello - Peace Beyond Passion (1996) [FLAC] {Maverick}\07 - God Shiva.wav
Pre-gap length 0:00:00.03
Peak level 95.5 %
Extraction speed 4.3 X
Track quality 100.0 %
Test CRC 581B8986
Copy CRC 581B8986
Accurately ripped (confidence 45) [5DAF62D1] (AR v2)
Copy OK
Track 8
Filename C:\My Documents\My FLAC\Me'Shell NdegéOcello - Peace Beyond Passion (1996) [FLAC] {Maverick}\08 - Who Is He And What Is He To You.wav
Pre-gap length 0:00:01.42
Peak level 96.6 %
Extraction speed 3.9 X
Track quality 100.0 %
Test CRC 28E35498
Copy CRC 28E35498
Accurately ripped (confidence 45) [25AFCBF5] (AR v2)
Copy OK
Track 9
Filename C:\My Documents\My FLAC\Me'Shell NdegéOcello - Peace Beyond Passion (1996) [FLAC] {Maverick}\09 - Stay.wav
Pre-gap length 0:00:00.03
Peak level 97.7 %
Extraction speed 4.5 X
Track quality 100.0 %
Test CRC 367E74D6
Copy CRC 367E74D6
Accurately ripped (confidence 43) [B1CC1046] (AR v2)
Copy OK
Track 10
Filename C:\My Documents\My FLAC\Me'Shell NdegéOcello - Peace Beyond Passion (1996) [FLAC] {Maverick}\10 - Bittersweet.wav
Pre-gap length 0:00:00.03
Peak level 97.7 %
Extraction speed 4.8 X
Track quality 100.0 %
Test CRC AF3DED8F
Copy CRC AF3DED8F
Accurately ripped (confidence 42) [85394AE0] (AR v2)
Copy OK
Track 11
Filename C:\My Documents\My FLAC\Me'Shell NdegéOcello - Peace Beyond Passion (1996) [FLAC] {Maverick}\11 - A Tear And A Smile.wav
Pre-gap length 0:00:00.02
Peak level 100.0 %
Extraction speed 4.9 X
Track quality 100.0 %
Test CRC D7ADA9ED
Copy CRC D7ADA9ED
Accurately ripped (confidence 44) [05D9894C] (AR v2)
Copy OK
Track 12
Filename C:\My Documents\My FLAC\Me'Shell NdegéOcello - Peace Beyond Passion (1996) [FLAC] {Maverick}\12 - Make Me Wanna Holler.wav
Pre-gap length 0:00:02.17
Peak level 96.6 %
Extraction speed 5.1 X
Track quality 100.0 %
Test CRC 39AE79C0
Copy CRC 39AE79C0
Accurately ripped (confidence 46) [988B711A] (AR v2)
Copy OK
All tracks accurately ripped
No errors occurred
End of status report
---- CUETools DB Plugin V2.1.6
[CTDB TOCID: aOEF1p4VN6hZKIpt6gpP1sXbAsE-] found
Submit result: aOEF1p4VN6hZKIpt6gpP1sXbAsE- has been confirmed
Track | CTDB Status
1 | (25/30) Accurately ripped
2 | (25/30) Accurately ripped
3 | (25/30) Accurately ripped
4 | (24/30) Accurately ripped
5 | (25/30) Accurately ripped
6 | (24/30) Accurately ripped
7 | (24/30) Accurately ripped
8 | (23/30) Accurately ripped
9 | (24/30) Accurately ripped
10 | (24/30) Accurately ripped
11 | (23/30) Accurately ripped
12 | (24/30) Accurately ripped
==== Log checksum 51E6AFE8651344B676F4E12137DFB12CF11F79A9E78F69906AC57CEADEBED097 ====
 
Содержание индексной карты (.CUE)
REM GENRE Jazz
REM DATE 1996
REM DISCID B40DE30C
REM COMMENT "ExactAudioCopy v1.1"
CATALOG 0075994603322
PERFORMER "Me'Shell NdegéOcello"
TITLE "Peace Beyond Passion"
FILE "01 - The Womb.wav" WAVE
TRACK 01 AUDIO
TITLE "The Womb"
PERFORMER "Me'Shell NdegéOcello"
PREGAP 00:00:32
INDEX 01 00:00:00
TRACK 02 AUDIO
TITLE "The Way"
PERFORMER "Me'Shell NdegéOcello"
INDEX 00 01:25:43
FILE "02 - The Way.wav" WAVE
INDEX 01 00:00:00
TRACK 03 AUDIO
TITLE "Deuteronomy: Niggerman"
PERFORMER "Me'Shell NdegéOcello"
INDEX 00 04:58:18
FILE "03 - Deuteronomy- Niggerman.wav" WAVE
INDEX 01 00:00:00
TRACK 04 AUDIO
TITLE "Ecclesiastes: Free My Heart"
PERFORMER "Me'Shell NdegéOcello"
INDEX 00 04:01:30
FILE "04 - Ecclesiastes- Free My Heart.wav" WAVE
INDEX 01 00:00:00
TRACK 05 AUDIO
TITLE "Leviticus: Faggot"
PERFORMER "Me'Shell NdegéOcello"
INDEX 00 05:22:17
FILE "05 - Leviticus- Faggot.wav" WAVE
INDEX 01 00:00:00
TRACK 06 AUDIO
TITLE "Mary Magdalene"
PERFORMER "Me'Shell NdegéOcello"
INDEX 00 06:08:45
FILE "06 - Mary Magdalene.wav" WAVE
INDEX 01 00:00:00
TRACK 07 AUDIO
TITLE "God Shiva"
PERFORMER "Me'Shell NdegéOcello"
INDEX 00 05:51:35
FILE "07 - God Shiva.wav" WAVE
INDEX 01 00:00:00
TRACK 08 AUDIO
TITLE "Who Is He And What Is He To You"
PERFORMER "Me'Shell NdegéOcello"
INDEX 00 04:07:45
FILE "08 - Who Is He And What Is He To You.wav" WAVE
INDEX 01 00:00:00
TRACK 09 AUDIO
TITLE "Stay"
PERFORMER "Me'Shell NdegéOcello"
INDEX 00 04:49:45
FILE "09 - Stay.wav" WAVE
INDEX 01 00:00:00
TRACK 10 AUDIO
TITLE "Bittersweet"
PERFORMER "Me'Shell NdegéOcello"
INDEX 00 04:30:32
FILE "10 - Bittersweet.wav" WAVE
INDEX 01 00:00:00
TRACK 11 AUDIO
TITLE "A Tear And A Smile"
PERFORMER "Me'Shell NdegéOcello"
INDEX 00 05:17:40
FILE "11 - A Tear And A Smile.wav" WAVE
INDEX 01 00:00:00
TRACK 12 AUDIO
TITLE "Make Me Wanna Holler"
PERFORMER "Me'Shell NdegéOcello"
INDEX 00 03:47:43
FILE "12 - Make Me Wanna Holler.wav" WAVE
INDEX 01 00:00:00
 
CUETools log
[CUETools log; Date: 15.02.2017 19:30:39; Version: 2.0.9]
Pregap length 00:00:32.
[AccurateRip ID: 00180a39-00e67825-b40de30c] found.
Track [ CRC ] Status
01 [369e9ac1] (054/138) Accurately ripped
02 [ae236d49] (055/140) Accurately ripped
03 [9957aa76] (056/141) Accurately ripped
04 [afe2c0be] (055/141) Accurately ripped
05 [d2bc5c55] (055/140) Accurately ripped
06 [573c383e] (056/141) Accurately ripped
07 [8e8bfb06] (053/138) Accurately ripped
08 [52950c7e] (055/139) Accurately ripped
09 [9d0491d3] (055/138) Accurately ripped
10 [f3ec0eb1] (054/135) Accurately ripped
11 [052564db] (054/138) Accurately ripped
12 [a71193c5] (051/135) Accurately ripped
Offsetted by -381:
01 [7abc8c7f] (004/138) Accurately ripped
02 [22b5953d] (004/140) Accurately ripped
03 [b93cf552] (004/141) Accurately ripped
04 [c8426bd0] (004/141) Accurately ripped
05 [785224d7] (004/140) Accurately ripped
06 [7c50bc76] (004/141) Accurately ripped
07 [52bae270] (004/138) Accurately ripped
08 [79ddbebd] (004/139) Accurately ripped
09 [bbbf582f] (004/138) Accurately ripped
10 [e74e81b9] (004/135) Accurately ripped
11 [3ac2fae6] (004/138) Accurately ripped
12 [13b54db0] (004/135) Accurately ripped
Offsetted by -594:
01 [5ea18e93] (012/138) No match but offset
02 [475ca087] (012/140) No match but offset
03 [2174ac71] (012/141) No match but offset
04 [2a347418] (012/141) No match but offset
05 [dccadd0b] (012/140) No match but offset
06 [285faf66] (012/141) No match but offset
07 [f66e742b] (012/138) No match but offset
08 [4f9ddcf1] (012/139) No match but offset
09 [9ebeeb75] (012/138) No match but offset
10 [e4816a95] (011/135) No match but offset
11 [1b417fb2] (012/138) No match but offset
12 [1eb52fd1] (011/135) No match but offset
Track Peak [ CRC32 ] [W/O NULL] [ LOG ]
-- 99,9 [0DC2DCB9] [548F4ED6]
01 97,7 [BD25F7CD] [1EA7BCEF] CRC32
02 95,5 [EF0B8FAE] [3DC7D976] CRC32
03 97,7 [515A9A99] [8CBA2C6B] CRC32
04 95,5 [725FC428] [052073E3] CRC32
05 95,1 [A3A0A096] [F04757EA] CRC32
06 95,5 [05040607] [C779D981] CRC32
07 95,5 [581B8986] [55BA44D9] CRC32
08 96,6 [28E35498] [E34DABE4] CRC32
09 97,7 [367E74D6] [702AED4B] CRC32
10 97,7 [AF3DED8F] [94AE70C3] CRC32
11 99,9 [D7ADA9ED] [1A37F0C8] CRC32
12 96,6 [39AE79C0] [335E6F67] CRC32
 
Об альбоме (сборнике)
Peace Beyond Passion is the 1996 album by American singer, bassist, and songwriter Me'Shell NdegéOcello. This was her second album and featured the hits "Stay", "Leviticus: Faggot" and her cover of Bill Withers' "Who Is He And What Is He To You".
Приватный:
Нет (DHT включён)
Размер:
362.81 Мб (380,438,963 байт) » файлов: 27
Участники:
0 раздают, 1 качают (1 участников всего)
Внешние участники:
7 раздают, 2 качают (9 участников всего) [ Обновить ]
Есть вопросы - пишите личное сообщение пользователю M0p94ok.
13:04
91
Нет комментариев. Ваш будет первым!