Поиск

(Soul, R&B) [CD] Jeff Floyd - Powerhouse - 2001, FLAC (tracks+.cue), lossless

(Soul, R&B) [CD] Jeff Floyd - Powerhouse - 2001, FLAC (tracks+.cue), lossless
Треклист:
Jeff Floyd - Powerhouse Жанр: Soul, R&B
Носитель: CD
Год издания: 2001
Издатель (лейбл): Wilbe Records
Номер по каталогу: Wil2002-2
Аудиокодек: FLAC (*.flac)
Тип рипа: tracks+.cue
Битрейт аудио: lossless
Продолжительность: 53:03
Rip by JET 1
Наличие сканов в содержимом раздачи: да
Треклист:
01. I Found Love (On A Lonely Highway) (7:34)
02. Funny Love (4:17)
03. You're My Magic Girl (3:38)
04. Let's Get It On (5:41)
05. I'm Giving You My Private NUmber (5:04)
06. I'm Giving Up (All The Other Girls) (4:55)
07. Nobody Wants You (3:57)
08. Try A Little Tenderness (4:46)
09. Face Down (3:59)
10. All I Need (5:35)
11. Party All Night (3:37)
 
 
Лог создания рипа
Exact Audio Copy V1.0 beta 3 from 29. August 2011
EAC extraction logfile from 1. March 2016, 22:34
Jeff Floyd / Powerhouse
Used drive : GENERIC CDRCB05 Adapter: 4 ID: 0
Read mode : Secure
Utilize accurate stream : Yes
Defeat audio cache : Yes
Make use of C2 pointers : No
Read offset correction : 102
Overread into Lead-In and Lead-Out : No
Fill up missing offset samples with silence : Yes
Delete leading and trailing silent blocks : No
Null samples used in CRC calculations : Yes
Used interface : Native Win32 interface for Win NT & 2000
Gap handling : Appended to previous track
Used output format : User Defined Encoder
Selected bitrate : 1024 kBit/s
Quality : High
Add ID3 tag : No
Command line compressor : C:\Program Files\FLAC\flac.exe
Additional command line options : -8 -V -T "ARTIST=%artist%" -T "TITLE=%title%" -T "ALBUM=%albumtitle%" -T "DATE=%year%" -T "TRACKNUMBER=%tracknr%" -T "GENRE=%genre%" -T "PERFORMER=%albuminterpret%" -T "COMPOSER=%composer%" %haslyrics%--tag-from-file=LYRICS="%lyricsfile%"%haslyrics% -T "ALBUMARTIST=%albumartist%" -T "DISCNUMBER=%cdnumber%" -T "TOTALDISCS=%totalcds%" -T "TOTALTRACKS=%numtracks%" -T "COMMENT=%comment%" %source% -o %dest%
TOC of the extracted CD
Track | Start | Length | Start sector | End sector
---------------------------------------------------------
1 | 0:01.00 | 7:33.40 | 75 | 34089
2 | 7:34.40 | 4:16.40 | 34090 | 53329
3 | 11:51.05 | 3:37.61 | 53330 | 69665
4 | 15:28.66 | 5:40.61 | 69666 | 95226
5 | 21:09.52 | 5:04.00 | 95227 | 118026
6 | 26:13.52 | 4:55.34 | 118027 | 140185
7 | 31:09.11 | 3:57.22 | 140186 | 157982
8 | 35:06.33 | 4:45.69 | 157983 | 179426
9 | 39:52.27 | 3:59.27 | 179427 | 197378
10 | 43:51.54 | 5:34.71 | 197379 | 222499
11 | 49:26.50 | 3:37.06 | 222500 | 238780
Track 1
Filename G:\POSTS\Jeff Floyd ‎- Powerhouse (2000)\01 - I Found Love (On A Lonely Highway).wav
Pre-gap length 0:00:03.00
Peak level 99.8 %
Extraction speed 2.5 X
Track quality 100.0 %
Test CRC C9279D27
Copy CRC C9279D27
Track not present in AccurateRip database
Copy OK
Track 2
Filename G:\POSTS\Jeff Floyd ‎- Powerhouse (2000)\02 - Funny Love.wav
Peak level 99.8 %
Extraction speed 2.6 X
Track quality 100.0 %
Test CRC 44E41B31
Copy CRC 44E41B31
Track not present in AccurateRip database
Copy OK
Track 3
Filename G:\POSTS\Jeff Floyd ‎- Powerhouse (2000)\03 - You're My Magic Girl.wav
Peak level 99.8 %
Extraction speed 2.6 X
Track quality 99.9 %
Test CRC 2D3A612D
Copy CRC 2D3A612D
Track not present in AccurateRip database
Copy OK
Track 4
Filename G:\POSTS\Jeff Floyd ‎- Powerhouse (2000)\04 - Let's get It On.wav
Pre-gap length 0:00:01.00
Peak level 99.8 %
Extraction speed 3.3 X
Track quality 100.0 %
Test CRC 42FD57A9
Copy CRC 42FD57A9
Track not present in AccurateRip database
Copy OK
Track 5
Filename G:\POSTS\Jeff Floyd ‎- Powerhouse (2000)\05 - I'm Giving You My Private NUmber.wav
Pre-gap length 0:00:01.00
Peak level 99.8 %
Extraction speed 3.5 X
Track quality 100.0 %
Test CRC 18B428BF
Copy CRC 18B428BF
Track not present in AccurateRip database
Copy OK
Track 6
Filename G:\POSTS\Jeff Floyd ‎- Powerhouse (2000)\06 - I'm Giving Up (All The Other Girls).wav
Peak level 99.8 %
Extraction speed 3.3 X
Track quality 99.9 %
Test CRC F0D62EC4
Copy CRC F0D62EC4
Track not present in AccurateRip database
Copy OK
Track 7
Filename G:\POSTS\Jeff Floyd ‎- Powerhouse (2000)\07 - Nobody Wants You.wav
Peak level 99.8 %
Extraction speed 3.6 X
Track quality 100.0 %
Test CRC 005367C0
Copy CRC 005367C0
Track not present in AccurateRip database
Copy OK
Track 8
Filename G:\POSTS\Jeff Floyd ‎- Powerhouse (2000)\08 - Try A Little Tenderness.wav
Pre-gap length 0:00:01.00
Peak level 99.8 %
Extraction speed 3.9 X
Track quality 100.0 %
Test CRC 318EB9F9
Copy CRC 318EB9F9
Track not present in AccurateRip database
Copy OK
Track 9
Filename G:\POSTS\Jeff Floyd ‎- Powerhouse (2000)\09 - Face Down.wav
Peak level 99.8 %
Extraction speed 3.0 X
Track quality 99.9 %
Test CRC DBF054BC
Copy CRC DBF054BC
Track not present in AccurateRip database
Copy OK
Track 10
Filename G:\POSTS\Jeff Floyd ‎- Powerhouse (2000)\10 - All I Need.wav
Pre-gap length 0:00:01.00
Peak level 99.8 %
Extraction speed 3.6 X
Track quality 99.9 %
Test CRC 020F6B01
Copy CRC 020F6B01
Track not present in AccurateRip database
Copy OK
Track 11
Filename G:\POSTS\Jeff Floyd ‎- Powerhouse (2000)\11 - Party All Night.wav
Peak level 99.8 %
Extraction speed 4.3 X
Track quality 100.0 %
Test CRC 58625E7C
Copy CRC 58625E7C
Track not present in AccurateRip database
Copy OK
None of the tracks are present in the AccurateRip database
No errors occurred
End of status report
==== Log checksum 6F2A2F5A01B2E6717EFAC159A43CCF6232443AC9C3787CBCFAF94049F69C7A69 ====
 
Содержание индексной карты (.CUE)
REM GENRE Soul
REM DATE 2001
REM DISCID 9B0C6E0B
REM COMMENT "ExactAudioCopy v1.0b3"
PERFORMER "Jeff Floyd"
TITLE "Powerhouse"
FILE "01 - I Found Love (On A Lonely Highway).wav" WAVE
TRACK 01 AUDIO
TITLE "I Found Love (On A Lonely Highway)"
PERFORMER "Jeff Floyd"
FLAGS DCP
PREGAP 00:01:00
INDEX 01 00:00:00
FILE "02 - Funny Love.wav" WAVE
TRACK 02 AUDIO
TITLE "Funny Love"
PERFORMER "Jeff Floyd"
FLAGS DCP
INDEX 01 00:00:00
FILE "03 - You're My Magic Girl.wav" WAVE
TRACK 03 AUDIO
TITLE "You're My Magic Girl"
PERFORMER "Jeff Floyd"
FLAGS DCP
INDEX 01 00:00:00
TRACK 04 AUDIO
TITLE "Let's Get It On"
PERFORMER "Jeff Floyd"
FLAGS DCP
INDEX 00 03:36:61
FILE "04 - Let's Get It On.wav" WAVE
INDEX 01 00:00:00
TRACK 05 AUDIO
TITLE "I'm Giving You My Private NUmber"
PERFORMER "Jeff Floyd"
FLAGS DCP
INDEX 00 05:39:61
FILE "05 - I'm Giving You My Private NUmber.wav" WAVE
INDEX 01 00:00:00
FILE "06 - I'm Giving Up (All The Other Girls).wav" WAVE
TRACK 06 AUDIO
TITLE "I'm Giving Up (All The Other Girls)"
PERFORMER "Jeff Floyd"
FLAGS DCP
INDEX 01 00:00:00
FILE "07 - Nobody Wants You.wav" WAVE
TRACK 07 AUDIO
TITLE "Nobody Wants You"
PERFORMER "Jeff Floyd"
FLAGS DCP
INDEX 01 00:00:00
TRACK 08 AUDIO
TITLE "Try A Little Tenderness"
PERFORMER "Jeff Floyd"
FLAGS DCP
INDEX 00 03:56:22
FILE "08 - Try A Little Tenderness.wav" WAVE
INDEX 01 00:00:00
FILE "09 - Face Down.wav" WAVE
TRACK 09 AUDIO
TITLE "Face Down"
PERFORMER "Jeff Floyd"
FLAGS DCP
INDEX 01 00:00:00
TRACK 10 AUDIO
TITLE "All I Need"
PERFORMER "Jeff Floyd"
FLAGS DCP
INDEX 00 03:58:27
FILE "10 - All I Need.wav" WAVE
INDEX 01 00:00:00
FILE "11 - Party All Night.wav" WAVE
TRACK 11 AUDIO
TITLE "Party All Night"
PERFORMER "Jeff Floyd"
FLAGS DCP
INDEX 01 00:00:00
Приватный:
Нет (DHT включён)
Размер:
400.30 Мб (419,746,259 байт) » файлов: 21
Участники:
0 раздают, 0 качают (0 участников всего)
Внешние участники:
2 раздают, 1 качают (3 участников всего) [ Обновить ]
Есть вопросы - пишите личное сообщение пользователю M0p94ok.
12:53
66
Нет комментариев. Ваш будет первым!