Поиск

(Soul, R&B) [CD] Jeannie Reynolds - Cherries, Bananas And Other Fine Things (1976) - 2010, FLAC (tracks+.cue), lossless

(Soul, R&B) [CD] Jeannie Reynolds - Cherries, Bananas And Other Fine Things (1976) - 2010, FLAC (tracks+.cue), lossless
Треклист:
Jeannie Reynolds - Cherries, Bananas And Other Fine Things (1976) Жанр: Soul, R&B
Носитель: CD
Год издания: 2010
Издатель (лейбл): Reel Music
Номер по каталогу: PCD 72003
Аудиокодек: FLAC (*.flac)
Тип рипа: tracks+.cue
Битрейт аудио: lossless
Продолжительность: 50:16
Rip by JET 1
Наличие сканов в содержимом раздачи: да
Треклист:
01. The Fruit Song (7:09)
02. Hit And Run (3:40)
03. Unyeilding (2:34)
04. The Feelin' Ain't There (3:04)
05. I've Still Got My Pride (2:53)
06. You Want To Get Your Hands On A Woman (4:21)
07. Look What Love Has Done To Me Ma (3:28)
08. I'm Lonely (4:10)
09. I Come Here To Party (3:06)
10. The Phone's Been Jumping All Day (Bonus Track) (3:33)
11. Unwanted Company (Bonus Track) (3:57)
12. Lay Some Lovin' On Me (Bonus Track) (3:29)
13. Love Don't Come Easy For Me Now (Bonus Track) (4:51)
 
 
Лог создания рипа
Exact Audio Copy V1.0 beta 3 from 29. August 2011
EAC extraction logfile from 18. December 2015, 22:46
Jeannie Reynolds / Cherries, Bananas And Other Fine Things
Used drive : GENERIC CDRCB05 Adapter: 4 ID: 0
Read mode : Secure
Utilize accurate stream : Yes
Defeat audio cache : Yes
Make use of C2 pointers : No
Read offset correction : 102
Overread into Lead-In and Lead-Out : No
Fill up missing offset samples with silence : Yes
Delete leading and trailing silent blocks : No
Null samples used in CRC calculations : Yes
Used interface : Native Win32 interface for Win NT & 2000
Gap handling : Appended to previous track
Used output format : User Defined Encoder
Selected bitrate : 1024 kBit/s
Quality : High
Add ID3 tag : No
Command line compressor : C:\Program Files\FLAC\flac.exe
Additional command line options : -8 -V -T "ARTIST=%artist%" -T "TITLE=%title%" -T "ALBUM=%albumtitle%" -T "DATE=%year%" -T "TRACKNUMBER=%tracknr%" -T "GENRE=%genre%" -T "PERFORMER=%albuminterpret%" -T "COMPOSER=%composer%" %haslyrics%--tag-from-file=LYRICS="%lyricsfile%"%haslyrics% -T "ALBUMARTIST=%albumartist%" -T "DISCNUMBER=%cdnumber%" -T "TOTALDISCS=%totalcds%" -T "TOTALTRACKS=%numtracks%" -T "COMMENT=%comment%" %source% -o %dest%
TOC of the extracted CD
Track | Start | Length | Start sector | End sector
---------------------------------------------------------
1 | 0:00.00 | 7:08.54 | 0 | 32153
2 | 7:08.54 | 3:40.12 | 32154 | 48665
3 | 10:48.66 | 2:33.43 | 48666 | 60183
4 | 13:22.34 | 3:04.30 | 60184 | 74013
5 | 16:26.64 | 2:53.35 | 74014 | 87023
6 | 19:20.24 | 4:21.12 | 87024 | 106610
7 | 23:41.36 | 3:27.53 | 106611 | 122188
8 | 27:09.14 | 4:10.25 | 122189 | 140963
9 | 31:19.39 | 3:05.57 | 140964 | 154895
10 | 34:25.21 | 3:32.66 | 154896 | 170861
11 | 37:58.12 | 3:57.36 | 170862 | 188672
12 | 41:55.48 | 3:29.26 | 188673 | 204373
13 | 45:24.74 | 4:50.61 | 204374 | 226184
Track 1
Filename F:\POSTS\Jeannie Reynolds - Cherries, Bananas & Other Fine Things (1976) [2010]\01 - The Fruit Song.wav
Pre-gap length 0:00:02.00
Peak level 98.8 %
Extraction speed 2.6 X
Track quality 100.0 %
Test CRC 78369721
Copy CRC 78369721
Accurately ripped (confidence 1) [8B0A255A] (AR v2)
Copy OK
Track 2
Filename F:\POSTS\Jeannie Reynolds - Cherries, Bananas & Other Fine Things (1976) [2010]\02 - Hit And Run.wav
Pre-gap length 0:00:01.46
Peak level 98.8 %
Extraction speed 2.7 X
Track quality 100.0 %
Test CRC 5B368A8A
Copy CRC 5B368A8A
Accurately ripped (confidence 1) [90A0A674] (AR v2)
Copy OK
Track 3
Filename F:\POSTS\Jeannie Reynolds - Cherries, Bananas & Other Fine Things (1976) [2010]\03 - Unyeilding.wav
Pre-gap length 0:00:01.46
Peak level 98.8 %
Extraction speed 2.6 X
Track quality 100.0 %
Test CRC 0CC5DCA5
Copy CRC 0CC5DCA5
Accurately ripped (confidence 1) [53B83E8A] (AR v2)
Copy OK
Track 4
Filename F:\POSTS\Jeannie Reynolds - Cherries, Bananas & Other Fine Things (1976) [2010]\04 - The Feelin' Ain't There.wav
Pre-gap length 0:00:01.49
Peak level 98.8 %
Extraction speed 2.2 X
Track quality 100.0 %
Test CRC CAF6593C
Copy CRC CAF6593C
Accurately ripped (confidence 1) [06CF29F5] (AR v2)
Copy OK
Track 5
Filename F:\POSTS\Jeannie Reynolds - Cherries, Bananas & Other Fine Things (1976) [2010]\05 - I've Still Got My Pride.wav
Pre-gap length 0:00:01.48
Peak level 98.8 %
Extraction speed 2.7 X
Track quality 100.0 %
Test CRC 99531418
Copy CRC 99531418
Accurately ripped (confidence 1) [077B1055] (AR v2)
Copy OK
Track 6
Filename F:\POSTS\Jeannie Reynolds - Cherries, Bananas & Other Fine Things (1976) [2010]\06 - You Want To Get Your Hands On A Woman.wav
Pre-gap length 0:00:01.46
Peak level 98.8 %
Extraction speed 3.1 X
Track quality 100.0 %
Test CRC 07D4F2B3
Copy CRC 07D4F2B3
Accurately ripped (confidence 1) [BE3C5F2D] (AR v2)
Copy OK
Track 7
Filename F:\POSTS\Jeannie Reynolds - Cherries, Bananas & Other Fine Things (1976) [2010]\07 - Look What Love Has Done To Me Ma.wav
Pre-gap length 0:00:01.44
Peak level 98.7 %
Extraction speed 3.2 X
Track quality 100.0 %
Test CRC F0074009
Copy CRC F0074009
Accurately ripped (confidence 1) [1630634E] (AR v2)
Copy OK
Track 8
Filename F:\POSTS\Jeannie Reynolds - Cherries, Bananas & Other Fine Things (1976) [2010]\08 - I'm Lonely.wav
Pre-gap length 0:00:01.45
Peak level 98.8 %
Extraction speed 3.1 X
Track quality 99.9 %
Test CRC 659D646E
Copy CRC 659D646E
Accurately ripped (confidence 1) [11894036] (AR v2)
Copy OK
Track 9
Filename F:\POSTS\Jeannie Reynolds - Cherries, Bananas & Other Fine Things (1976) [2010]\09 - I Come Here To Party.wav
Pre-gap length 0:00:01.45
Peak level 98.8 %
Extraction speed 3.3 X
Track quality 100.0 %
Test CRC E070B455
Copy CRC E070B455
Accurately ripped (confidence 1) [E87F1A8D] (AR v2)
Copy OK
Track 10
Filename F:\POSTS\Jeannie Reynolds - Cherries, Bananas & Other Fine Things (1976) [2010]\10 - The Phone's Been Jumping All Day (Bonus Track).wav
Pre-gap length 0:00:01.48
Peak level 98.8 %
Extraction speed 3.5 X
Track quality 100.0 %
Test CRC 4BE1FB58
Copy CRC 4BE1FB58
Accurately ripped (confidence 1) [AACA5417] (AR v2)
Copy OK
Track 11
Filename F:\POSTS\Jeannie Reynolds - Cherries, Bananas & Other Fine Things (1976) [2010]\11 - Unwanted Company (Bonus Track).wav
Pre-gap length 0:00:01.47
Peak level 98.8 %
Extraction speed 3.9 X
Track quality 100.0 %
Test CRC 6DF72BDF
Copy CRC 6DF72BDF
Accurately ripped (confidence 1) [4A417809] (AR v2)
Copy OK
Track 12
Filename F:\POSTS\Jeannie Reynolds - Cherries, Bananas & Other Fine Things (1976) [2010]\12 - Lay Some Lovin' On Me (Bonus Track).wav
Pre-gap length 0:00:01.48
Peak level 98.8 %
Extraction speed 3.8 X
Track quality 100.0 %
Test CRC 538AFF7E
Copy CRC 538AFF7E
Accurately ripped (confidence 1) [4187EF8E] (AR v2)
Copy OK
Track 13
Filename F:\POSTS\Jeannie Reynolds - Cherries, Bananas & Other Fine Things (1976) [2010]\13 - Love Don't Come Easy For Me Now (Bonus Track).wav
Pre-gap length 0:00:02.15
Peak level 98.8 %
Extraction speed 3.8 X
Track quality 99.9 %
Test CRC 1BAB9BE1
Copy CRC 1BAB9BE1
Accurately ripped (confidence 1) [275619D0] (AR v2)
Copy OK
All tracks accurately ripped
No errors occurred
End of status report
==== Log checksum 90FE23765C8826820A9757D10D7917374A8AECA5CA7AB9DF2E80E74377C34EBB ====
 
Содержание индексной карты (.CUE)
REM GENRE Soul
REM DATE 2010
REM DISCID A50BC70D
REM COMMENT "ExactAudioCopy v1.0b3"
PERFORMER "Jeannie Reynolds"
TITLE "Cherries, Bananas And Other Fine Things"
FILE "01 - The Fruit Song.wav" WAVE
TRACK 01 AUDIO
TITLE "The Fruit Song"
PERFORMER "Jeannie Reynolds"
INDEX 01 00:00:00
TRACK 02 AUDIO
TITLE "Hit And Run"
PERFORMER "Jeannie Reynolds"
INDEX 00 07:07:08
FILE "02 - Hit And Run.wav" WAVE
INDEX 01 00:00:00
TRACK 03 AUDIO
TITLE "Unyeilding"
PERFORMER "Jeannie Reynolds"
INDEX 00 03:38:41
FILE "03 - Unyeilding.wav" WAVE
INDEX 01 00:00:00
TRACK 04 AUDIO
TITLE "The Feelin' Ain't There"
PERFORMER "Jeannie Reynolds"
INDEX 00 02:31:69
FILE "04 - The Feelin' Ain't There.wav" WAVE
INDEX 01 00:00:00
TRACK 05 AUDIO
TITLE "I've Still Got My Pride"
PERFORMER "Jeannie Reynolds"
INDEX 00 03:02:57
FILE "05 - I've Still Got My Pride.wav" WAVE
INDEX 01 00:00:00
TRACK 06 AUDIO
TITLE "You Want To Get Your Hands On A Woman"
PERFORMER "Jeannie Reynolds"
INDEX 00 02:51:64
FILE "06 - You Want To Get Your Hands On A Woman.wav" WAVE
INDEX 01 00:00:00
TRACK 07 AUDIO
TITLE "Look What Love Has Done To Me Ma"
PERFORMER "Jeannie Reynolds"
INDEX 00 04:19:43
FILE "07 - Look What Love Has Done To Me Ma.wav" WAVE
INDEX 01 00:00:00
TRACK 08 AUDIO
TITLE "I'm Lonely"
PERFORMER "Jeannie Reynolds"
INDEX 00 03:26:08
FILE "08 - I'm Lonely.wav" WAVE
INDEX 01 00:00:00
TRACK 09 AUDIO
TITLE "I Come Here To Party"
PERFORMER "Jeannie Reynolds"
INDEX 00 04:08:55
FILE "09 - I Come Here To Party.wav" WAVE
INDEX 01 00:00:00
TRACK 10 AUDIO
TITLE "The Phone's Been Jumping All Day (Bonus Track)"
PERFORMER "Jeannie Reynolds"
INDEX 00 03:04:09
FILE "10 - The Phone's Been Jumping All Day (Bonus Track).wav" WAVE
INDEX 01 00:00:00
TRACK 11 AUDIO
TITLE "Unwanted Company (Bonus Track)"
PERFORMER "Jeannie Reynolds"
INDEX 00 03:31:19
FILE "11 - Unwanted Company (Bonus Track).wav" WAVE
INDEX 01 00:00:00
TRACK 12 AUDIO
TITLE "Lay Some Lovin' On Me (Bonus Track)"
PERFORMER "Jeannie Reynolds"
INDEX 00 03:55:63
FILE "12 - Lay Some Lovin' On Me (Bonus Track).wav" WAVE
INDEX 01 00:00:00
TRACK 13 AUDIO
TITLE "Love Don't Come Easy For Me Now (Bonus Track)"
PERFORMER "Jeannie Reynolds"
INDEX 00 03:27:11
FILE "13 - Love Don't Come Easy For Me Now (Bonus Track).wav" WAVE
INDEX 01 00:00:00
Приватный:
Нет (DHT включён)
Размер:
553.93 Мб (580,834,928 байт) » файлов: 30
Участники:
0 раздают, 0 качают (0 участников всего)
Внешние участники:
1 раздают, 0 качают (1 участников всего) [ Обновить ]
Есть вопросы - пишите личное сообщение пользователю M0p94ok.
09:08
69
Нет комментариев. Ваш будет первым!