Поиск

(Soul, R&B) [CD] Chuck Cissel - Just For You (1979) + If I Had The Chance (1982) [2in1] - 2014, FLAC (tracks+.cue), lossless

(Soul, R&B) [CD] Chuck Cissel - Just For You (1979) + If I Had The Chance (1982) [2in1] - 2014, FLAC (tracks+.cue), lossless
Треклист:
Chuck Cissel - Just For You (1979) + If I Had The Chance (1982) Жанр: Soul, R&B
Носитель: CD
Страна-производитель диска (релиза): UK
Год издания: 2014
Издатель (лейбл): Expansion Records
Номер по каталогу: EXP2CD33
Аудиокодек: FLAC (*.flac)
Тип рипа: tracks+.cue
Битрейт аудио: lossless
Продолжительность: 75:01
Rip by JET 1
Наличие сканов в содержимом раздачи: да
Треклист:
01. Just For You (4:34)
02. Emergency (3:55)
03. River Of Love (4:53)
04. Don't Tell Me You're Sorry (3:37)
05. Forever (3:51)
06. Cisselin' Hot (5:30)
07. Lady In My World (3:19)
08. I've Been Needing Love So Long (3:47)
09. Do You Believe (3:44)
10. If I Had The Chance (4:22)
11. All I See Is You (4:02)
12. Night Miracles (4:34)
13. Love's Grown Deep (3:49)
14. Possessed (6:28)
15. Love Is Missing From Our Lives (4:47)
16. Understanding Man (4:20)
17. Dance Away The Pain (5:28)
 
 
Лог создания рипа
Exact Audio Copy V1.0 beta 3 from 29. August 2011
EAC extraction logfile from 16. July 2015, 15:13
Chuck Cissel / Just For You / If I Had The Chance
Used drive : GENERIC CDRCB05 Adapter: 4 ID: 0
Read mode : Secure
Utilize accurate stream : Yes
Defeat audio cache : Yes
Make use of C2 pointers : No
Read offset correction : 102
Overread into Lead-In and Lead-Out : No
Fill up missing offset samples with silence : Yes
Delete leading and trailing silent blocks : No
Null samples used in CRC calculations : Yes
Used interface : Native Win32 interface for Win NT & 2000
Gap handling : Appended to previous track
Used output format : User Defined Encoder
Selected bitrate : 1024 kBit/s
Quality : High
Add ID3 tag : No
Command line compressor : C:\Program Files\FLAC\flac.exe
Additional command line options : -8 -V -T "ARTIST=%artist%" -T "TITLE=%title%" -T "ALBUM=%albumtitle%" -T "DATE=%year%" -T "TRACKNUMBER=%tracknr%" -T "GENRE=%genre%" -T "PERFORMER=%albuminterpret%" -T "COMPOSER=%composer%" %haslyrics%--tag-from-file=LYRICS="%lyricsfile%"%haslyrics% -T "ALBUMARTIST=%albumartist%" -T "DISCNUMBER=%cdnumber%" -T "TOTALDISCS=%totalcds%" -T "TOTALTRACKS=%numtracks%" -T "COMMENT=%comment%" %source% -o %dest%
TOC of the extracted CD
Track | Start | Length | Start sector | End sector
---------------------------------------------------------
1 | 0:00.00 | 4:34.24 | 0 | 20573
2 | 4:34.24 | 3:55.21 | 20574 | 38219
3 | 8:29.45 | 4:52.72 | 38220 | 60191
4 | 13:22.42 | 3:37.30 | 60192 | 76496
5 | 16:59.72 | 3:50.50 | 76497 | 93796
6 | 20:50.47 | 5:29.49 | 93797 | 118520
7 | 26:20.21 | 3:18.73 | 118521 | 133443
8 | 29:39.19 | 3:46.64 | 133444 | 150457
9 | 33:26.08 | 3:43.56 | 150458 | 167238
10 | 37:09.64 | 4:22.10 | 167239 | 186898
11 | 41:31.74 | 4:02.23 | 186899 | 205071
12 | 45:34.22 | 4:33.73 | 205072 | 225619
13 | 50:08.20 | 3:49.18 | 225620 | 242812
14 | 53:57.38 | 6:27.74 | 242813 | 271911
15 | 60:25.37 | 4:47.26 | 271912 | 293462
16 | 65:12.63 | 4:20.07 | 293463 | 312969
17 | 69:32.70 | 5:28.15 | 312970 | 337584
Track 1
Filename F:\POSTS\Chuck Cissel - Just For You '79 If I Had The Chance '82 (2014) {EXP2CD33}\01 - Just For You.wav
Pre-gap length 0:00:02.00
Peak level 86.0 %
Extraction speed 2.4 X
Track quality 100.0 %
Test CRC 0D3BA573
Copy CRC 0D3BA573
Accurately ripped (confidence 5) [65DC54FB] (AR v2)
Copy OK
Track 2
Filename F:\POSTS\Chuck Cissel - Just For You '79 If I Had The Chance '82 (2014) {EXP2CD33}\02 - Emergency.wav
Peak level 86.0 %
Extraction speed 2.6 X
Track quality 100.0 %
Test CRC D0F18BD9
Copy CRC D0F18BD9
Accurately ripped (confidence 5) [6DD2F7A9] (AR v2)
Copy OK
Track 3
Filename F:\POSTS\Chuck Cissel - Just For You '79 If I Had The Chance '82 (2014) {EXP2CD33}\03 - River Of Love.wav
Peak level 86.0 %
Extraction speed 2.7 X
Track quality 100.0 %
Test CRC 8EADC00C
Copy CRC 8EADC00C
Accurately ripped (confidence 5) [83AAE2BB] (AR v2)
Copy OK
Track 4
Filename F:\POSTS\Chuck Cissel - Just For You '79 If I Had The Chance '82 (2014) {EXP2CD33}\04 - Don't Tell Me You're Sorry.wav
Pre-gap length 0:00:00.03
Peak level 86.0 %
Extraction speed 2.9 X
Track quality 100.0 %
Test CRC A9459F8C
Copy CRC A9459F8C
Accurately ripped (confidence 5) [C4A45280] (AR v2)
Copy OK
Track 5
Filename F:\POSTS\Chuck Cissel - Just For You '79 If I Had The Chance '82 (2014) {EXP2CD33}\05 - Forever.wav
Pre-gap length 0:00:00.29
Peak level 86.0 %
Extraction speed 3.1 X
Track quality 100.0 %
Test CRC A68A53BF
Copy CRC A68A53BF
Accurately ripped (confidence 5) [34C4219E] (AR v2)
Copy OK
Track 6
Filename F:\POSTS\Chuck Cissel - Just For You '79 If I Had The Chance '82 (2014) {EXP2CD33}\06 - Cisselin' Hot.wav
Pre-gap length 0:00:00.49
Peak level 80.2 %
Extraction speed 3.2 X
Track quality 99.9 %
Test CRC E8E4892B
Copy CRC E8E4892B
Accurately ripped (confidence 5) [F766FBEC] (AR v2)
Copy OK
Track 7
Filename F:\POSTS\Chuck Cissel - Just For You '79 If I Had The Chance '82 (2014) {EXP2CD33}\07 - Lady In My World.wav
Peak level 86.0 %
Extraction speed 3.4 X
Track quality 100.0 %
Test CRC 33C62DE4
Copy CRC 33C62DE4
Accurately ripped (confidence 5) [C8F4BB11] (AR v2)
Copy OK
Track 8
Filename F:\POSTS\Chuck Cissel - Just For You '79 If I Had The Chance '82 (2014) {EXP2CD33}\08 - I've Been Needing Love So Long.wav
Pre-gap length 0:00:00.39
Peak level 86.0 %
Extraction speed 3.5 X
Track quality 100.0 %
Test CRC 459BA6C1
Copy CRC 459BA6C1
Accurately ripped (confidence 5) [03126D4D] (AR v2)
Copy OK
Track 9
Filename F:\POSTS\Chuck Cissel - Just For You '79 If I Had The Chance '82 (2014) {EXP2CD33}\09 - Do You Believe.wav
Pre-gap length 0:00:01.05
Peak level 86.0 %
Extraction speed 3.4 X
Track quality 99.9 %
Test CRC 452110E9
Copy CRC 452110E9
Accurately ripped (confidence 5) [E1DD6084] (AR v2)
Copy OK
Track 10
Filename F:\POSTS\Chuck Cissel - Just For You '79 If I Had The Chance '82 (2014) {EXP2CD33}\10 - If I Had The Chance.wav
Pre-gap length 0:00:01.69
Peak level 96.5 %
Extraction speed 4.1 X
Track quality 100.0 %
Test CRC D50FCD36
Copy CRC D50FCD36
Accurately ripped (confidence 5) [1163C017] (AR v2)
Copy OK
Track 11
Filename F:\POSTS\Chuck Cissel - Just For You '79 If I Had The Chance '82 (2014) {EXP2CD33}\11 - All I See Is You.wav
Pre-gap length 0:00:00.08
Peak level 96.5 %
Extraction speed 4.2 X
Track quality 100.0 %
Test CRC 1218E184
Copy CRC 1218E184
Accurately ripped (confidence 5) [22DA29A3] (AR v2)
Copy OK
Track 12
Filename F:\POSTS\Chuck Cissel - Just For You '79 If I Had The Chance '82 (2014) {EXP2CD33}\12 - Night Miracles.wav
Pre-gap length 0:00:00.66
Peak level 96.5 %
Extraction speed 4.4 X
Track quality 100.0 %
Test CRC CE6BEE97
Copy CRC CE6BEE97
Accurately ripped (confidence 5) [8FF40AD7] (AR v2)
Copy OK
Track 13
Filename F:\POSTS\Chuck Cissel - Just For You '79 If I Had The Chance '82 (2014) {EXP2CD33}\13 - Love's Grown Deep.wav
Pre-gap length 0:00:00.64
Peak level 96.5 %
Extraction speed 4.4 X
Track quality 100.0 %
Test CRC 2905BC3A
Copy CRC 2905BC3A
Accurately ripped (confidence 5) [1E8EF02E] (AR v2)
Copy OK
Track 14
Filename F:\POSTS\Chuck Cissel - Just For You '79 If I Had The Chance '82 (2014) {EXP2CD33}\14 - Possessed.wav
Pre-gap length 0:00:00.09
Peak level 96.5 %
Extraction speed 4.9 X
Track quality 100.0 %
Test CRC 50D3F2B8
Copy CRC 50D3F2B8
Accurately ripped (confidence 5) [13E5D8D2] (AR v2)
Copy OK
Track 15
Filename F:\POSTS\Chuck Cissel - Just For You '79 If I Had The Chance '82 (2014) {EXP2CD33}\15 - Love Is Missing From Our Lives.wav
Pre-gap length 0:00:01.21
Peak level 96.5 %
Extraction speed 4.9 X
Track quality 100.0 %
Test CRC C60810B8
Copy CRC C60810B8
Accurately ripped (confidence 5) [55BF0BE7] (AR v2)
Copy OK
Track 16
Filename F:\POSTS\Chuck Cissel - Just For You '79 If I Had The Chance '82 (2014) {EXP2CD33}\16 - Understanding Man.wav
Pre-gap length 0:00:01.13
Peak level 96.5 %
Extraction speed 4.9 X
Track quality 100.0 %
Test CRC B7BAF76B
Copy CRC B7BAF76B
Accurately ripped (confidence 5) [CD75DD6D] (AR v2)
Copy OK
Track 17
Filename F:\POSTS\Chuck Cissel - Just For You '79 If I Had The Chance '82 (2014) {EXP2CD33}\17 - Dance Away The Pain.wav
Pre-gap length 0:00:01.22
Peak level 96.5 %
Extraction speed 5.2 X
Track quality 100.0 %
Test CRC D53A3241
Copy CRC D53A3241
Accurately ripped (confidence 5) [CBD10B9C] (AR v2)
Copy OK
All tracks accurately ripped
No errors occurred
End of status report
==== Log checksum 3B667F75559070CB2C6F7697E0720FC962356821AE4974B430D0115045499E56 ====
 
Содержание индексной карты (.CUE)
REM GENRE R&B
REM DATE 2014
REM DISCID D1119511
REM COMMENT "ExactAudioCopy v1.0b3"
PERFORMER "Chuck Cissel"
TITLE "Just For You / If I Had The Chance"
FILE "01 - Just For You.wav" WAVE
TRACK 01 AUDIO
TITLE "Just For You"
PERFORMER "Chuck Cissel"
INDEX 01 00:00:00
FILE "02 - Emergency.wav" WAVE
TRACK 02 AUDIO
TITLE "Emergency"
PERFORMER "Chuck Cissel"
INDEX 01 00:00:00
FILE "03 - River Of Love.wav" WAVE
TRACK 03 AUDIO
TITLE "River Of Love"
PERFORMER "Chuck Cissel"
INDEX 01 00:00:00
TRACK 04 AUDIO
TITLE "Don't Tell Me You're Sorry"
PERFORMER "Chuck Cissel"
INDEX 00 04:52:69
FILE "04 - Don't Tell Me You're Sorry.wav" WAVE
INDEX 01 00:00:00
TRACK 05 AUDIO
TITLE "Forever"
PERFORMER "Chuck Cissel"
INDEX 00 03:37:01
FILE "05 - Forever.wav" WAVE
INDEX 01 00:00:00
TRACK 06 AUDIO
TITLE "Cisselin' Hot"
PERFORMER "Chuck Cissel"
INDEX 00 03:50:01
FILE "06 - Cisselin' Hot.wav" WAVE
INDEX 01 00:00:00
FILE "07 - Lady In My World.wav" WAVE
TRACK 07 AUDIO
TITLE "Lady In My World"
PERFORMER "Chuck Cissel"
INDEX 01 00:00:00
TRACK 08 AUDIO
TITLE "I've Been Needing Love So Long"
PERFORMER "Chuck Cissel"
INDEX 00 03:18:34
FILE "08 - I've Been Needing Love So Long.wav" WAVE
INDEX 01 00:00:00
TRACK 09 AUDIO
TITLE "Do You Believe"
PERFORMER "Chuck Cissel"
INDEX 00 03:45:59
FILE "09 - Do You Believe.wav" WAVE
INDEX 01 00:00:00
TRACK 10 AUDIO
TITLE "If I Had The Chance"
PERFORMER "Chuck Cissel"
INDEX 00 03:41:62
FILE "10 - If I Had The Chance.wav" WAVE
INDEX 01 00:00:00
TRACK 11 AUDIO
TITLE "All I See Is You"
PERFORMER "Chuck Cissel"
INDEX 00 04:22:02
FILE "11 - All I See Is You.wav" WAVE
INDEX 01 00:00:00
TRACK 12 AUDIO
TITLE "Night Miracles"
PERFORMER "Chuck Cissel"
INDEX 00 04:01:32
FILE "12 - Night Miracles.wav" WAVE
INDEX 01 00:00:00
TRACK 13 AUDIO
TITLE "Love's Grown Deep"
PERFORMER "Chuck Cissel"
INDEX 00 04:33:09
FILE "13 - Love's Grown Deep.wav" WAVE
INDEX 01 00:00:00
TRACK 14 AUDIO
TITLE "Possessed"
PERFORMER "Chuck Cissel"
INDEX 00 03:49:09
FILE "14 - Possessed.wav" WAVE
INDEX 01 00:00:00
TRACK 15 AUDIO
TITLE "Love Is Missing From Our Lives"
PERFORMER "Chuck Cissel"
INDEX 00 06:26:53
FILE "15 - Love Is Missing From Our Lives.wav" WAVE
INDEX 01 00:00:00
TRACK 16 AUDIO
TITLE "Understanding Man"
PERFORMER "Chuck Cissel"
INDEX 00 04:46:13
FILE "16 - Understanding Man.wav" WAVE
INDEX 01 00:00:00
TRACK 17 AUDIO
TITLE "Dance Away The Pain"
PERFORMER "Chuck Cissel"
INDEX 00 04:18:60
FILE "17 - Dance Away The Pain.wav" WAVE
INDEX 01 00:00:00
Приватный:
Нет (DHT включён)
Размер:
662.71 Мб (694,898,980 байт) » файлов: 29
Участники:
0 раздают, 0 качают (0 участников всего)
Внешние участники:
3 раздают, 1 качают (4 участников всего) [ Обновить ]
Есть вопросы - пишите личное сообщение пользователю M0p94ok.
07:16
100
Нет комментариев. Ваш будет первым!