Поиск

(Pop, Funk, Soul) [CDS] Adele - 21 [Standart/UK/Japan & Singapore/Target Deluxe Editions], 4CD - 2011, FLAC (tracks+.cue), lossless

(Pop, Funk, Soul) [CDS] Adele - 21 [Standart/UK/Japan & Singapore/Target Deluxe Editions], 4CD - 2011, FLAC (tracks+.cue), lossless
Треклист:
Adele / 21 [UK/Japan & Singapore/Target Deluxe Editions]
Жанр: Pop , Funk , Soul
Носитель: CDS/4CD
Страна-производитель диска (релиза): the UK; Singapore; Japan; the USA
Год издания: 2011
Издатель (лейбл): ℗© 2011 XL Recordings Limited
Страна исполнителя (группы): the UK
Аудиокодек: FLAC (*.flac)
Тип рипа: tracks+.cue
Битрейт аудио: lossless
Продолжительность: 03:06:25
Источник (релизер): wrzmusic
Наличие сканов в содержимом раздачи: нет
 
Треклист
 
Standart
01. Rolling in the Deep [03:49]
02. Rumour Has It [03:43]
03. Turning Tables [04:10]
04. Don't You Remember [04:03]
05. Set Fire to the Rain [04:02]
06. He Won't Go [04:38]
07. Take It All [03:48]
08. I'll Be Waiting [04:02]
09. One and Only [05:48]
10. Lovesong [05:16]
11. Someone Like You [04:55]
 
UK Deluxe Edition
01. Rolling in the Deep [03:49]
02. Rumour Has It [03:43]
03. Turning Tables [04:10]
04. Don't You Remember [04:03]
05. Set Fire to the Rain [04:02]
06. He Won't Go [04:38]
07. Take It All [03:48]
08. I'll Be Waiting [04:02]
09. One and Only [05:48]
10. Lovesong [05:16]
11. Someone Like You [04:55]
12. If It Hadn't Been For Love [03:08]
13. Hiding My Heart [03:26]
 
Japan & Singapore Deluxe Edition
01. Rolling in the Deep [03:49]
02. Rumour Has It [03:43]
03. Turning Tables [04:10]
04. Don't You Remember [04:03]
05. Set Fire to the Rain [04:02]
06. He Won't Go [04:38]
07. Take It All [03:48]
08. I'll Be Waiting [04:02]
09. One and Only [05:48]
10. Lovesong [05:16]
11. Someone Like You [04:55]
12. I Found a Boy (Bonus Track) [03:37]
13. Tuming Tables (Live Acoustic) [04:22]
14. Don't You Remember (Live Acoustic) [04:20]
15. Someone Like You (Live Acoustic) [05:16]
 
Target Deluxe Edition
Standart Edition +
12. Need You Now (Live at CMT Artists of the Year awards, December 2010) [with Darius Rucker] [03:55]
13. Someone Like You (Live Acoustic) [05:14]
14. Turning Tables (Live Acoustic) [04:20]
15. Don’t You Remember? (Live Acoustic) [04:18]
 
Лог создания рипа
 
Standart
X Lossless Decoder version 20110212 (127.0)
XLD extraction logfile from 2011-02-20 11:33:06 +0000
Adele / 21
Used drive : MATSHITA DVD-R UJ-868 (revision KB19)
Ripper mode : CDParanoia III 10.2
Disable audio cache : OK for the drive with a cache less than 2750KiB
Make use of C2 pointers : NO
Read offset correction : 102
Max retry count : 100
Gap status : Analyzed, Appended (except HTOA)
TOC of the extracted CD
Track | Start | Length | Start sector | End sector
---------------------------------------------------------
1 | 00:00:00 | 03:49:22 | 0 | 17196
2 | 03:49:22 | 03:43:20 | 17197 | 33941
3 | 07:32:42 | 04:10:10 | 33942 | 52701
4 | 11:42:52 | 04:03:15 | 52702 | 70941
5 | 15:45:67 | 04:01:52 | 70942 | 89068
6 | 19:47:44 | 04:37:71 | 89069 | 109914
7 | 24:25:40 | 03:48:16 | 109915 | 127030
8 | 28:13:56 | 04:01:49 | 127031 | 145154
9 | 32:15:30 | 05:48:12 | 145155 | 171266
10 | 38:03:42 | 05:16:21 | 171267 | 194987
11 | 43:19:63 | 04:47:41 | 194988 | 216553
AccurateRip Summary
Track 01 : OK (confidence 6)
Track 02 : OK (confidence 6)
Track 03 : OK (confidence 6)
Track 04 : OK (confidence 6)
Track 05 : OK (confidence 6)
Track 06 : OK (confidence 6)
Track 07 : OK (confidence 6)
Track 08 : OK (confidence 6)
Track 09 : OK (confidence 6)
Track 10 : OK (confidence 6)
Track 11 : OK (confidence 6)
->All tracks accurately ripped.
All Tracks
Album gain : -9.96 dB
Peak : 0.998962
Statistics
Read error : 0
Skipped (treated as error) : 0
Edge jitter error (maybe fixed) : 0
Atom jitter error (maybe fixed) : 0
Drift error (maybe fixed) : 0
Dropped bytes error (maybe fixed) : 0
Duplicated bytes error (maybe fixed) : 0
Track 01
Filename : /Adele - 21 [2011] flac/01 Adele - Rolling In The Deep.flac
Pre-gap length : 00:02:00
Track gain : -9.75 dB
Peak : 0.997681
CRC32 hash (test run) : FDA16F7B
CRC32 hash : FDA16F7B
CRC32 hash (skip zero) : A3831D07
AccurateRip signature : 95AB465D
->Accurately ripped! (confidence 6)
Statistics
Read error : 0
Skipped (treated as error) : 0
Edge jitter error (maybe fixed) : 0
Atom jitter error (maybe fixed) : 0
Drift error (maybe fixed) : 0
Dropped bytes error (maybe fixed) : 0
Duplicated bytes error (maybe fixed) : 0
Inconsistency in error sectors : 0
Track 02
Filename : /Adele - 21 [2011] flac/02 Adele - Rumour Has It.flac
Track gain : -10.51 dB
Peak : 0.997681
CRC32 hash (test run) : 0997A9C3
CRC32 hash : 0997A9C3
CRC32 hash (skip zero) : 9B68199C
AccurateRip signature : 4B9DBF1B
->Accurately ripped! (confidence 6)
Statistics
Read error : 0
Skipped (treated as error) : 0
Edge jitter error (maybe fixed) : 0
Atom jitter error (maybe fixed) : 0
Drift error (maybe fixed) : 0
Dropped bytes error (maybe fixed) : 0
Duplicated bytes error (maybe fixed) : 0
Inconsistency in error sectors : 0
Track 03
Filename : /Adele - 21 [2011] flac/03 Adele - Turning Tables.flac
Pre-gap length : 00:01:63
Track gain : -10.51 dB
Peak : 0.998840
CRC32 hash (test run) : 9B31700A
CRC32 hash : 9B31700A
CRC32 hash (skip zero) : 9FD5FA67
AccurateRip signature : FD14DBEB
->Accurately ripped! (confidence 6)
Statistics
Read error : 0
Skipped (treated as error) : 0
Edge jitter error (maybe fixed) : 0
Atom jitter error (maybe fixed) : 0
Drift error (maybe fixed) : 0
Dropped bytes error (maybe fixed) : 0
Duplicated bytes error (maybe fixed) : 0
Inconsistency in error sectors : 0
Track 04
Filename : /Adele - 21 [2011] flac/04 Adele - Don't You Remember.flac
Track gain : -9.04 dB
Peak : 0.997681
CRC32 hash (test run) : 5ACECEC1
CRC32 hash : 5ACECEC1
CRC32 hash (skip zero) : 9F9C70F5
AccurateRip signature : 855B2316
->Accurately ripped! (confidence 6)
Statistics
Read error : 0
Skipped (treated as error) : 0
Edge jitter error (maybe fixed) : 0
Atom jitter error (maybe fixed) : 0
Drift error (maybe fixed) : 0
Dropped bytes error (maybe fixed) : 0
Duplicated bytes error (maybe fixed) : 0
Inconsistency in error sectors : 0
Track 05
Filename : /Adele - 21 [2011] flac/05 Adele - Set Fire To The Rain.flac
Track gain : -10.02 dB
Peak : 0.998962
CRC32 hash (test run) : CC4E7443
CRC32 hash : CC4E7443
CRC32 hash (skip zero) : 68BBC9BC
AccurateRip signature : 5BAF6DF4
->Accurately ripped! (confidence 6)
Statistics
Read error : 0
Skipped (treated as error) : 0
Edge jitter error (maybe fixed) : 0
Atom jitter error (maybe fixed) : 0
Drift error (maybe fixed) : 0
Dropped bytes error (maybe fixed) : 0
Duplicated bytes error (maybe fixed) : 0
Inconsistency in error sectors : 0
Track 06
Filename : /Adele - 21 [2011] flac/06 Adele - He Won't Go.flac
Track gain : -8.96 dB
Peak : 0.997681
CRC32 hash (test run) : D2103EA0
CRC32 hash : D2103EA0
CRC32 hash (skip zero) : B010B209
AccurateRip signature : 13BF9A3F
->Accurately ripped! (confidence 6)
Statistics
Read error : 0
Skipped (treated as error) : 0
Edge jitter error (maybe fixed) : 0
Atom jitter error (maybe fixed) : 0
Drift error (maybe fixed) : 0
Dropped bytes error (maybe fixed) : 0
Duplicated bytes error (maybe fixed) : 0
Inconsistency in error sectors : 0
Track 07
Filename : /Adele - 21 [2011] flac/07 Adele - Take It All.flac
Track gain : -8.77 dB
Peak : 0.998840
CRC32 hash (test run) : 6520B901
CRC32 hash : 6520B901
CRC32 hash (skip zero) : 5B5B3318
AccurateRip signature : 3338C320
->Accurately ripped! (confidence 6)
Statistics
Read error : 0
Skipped (treated as error) : 0
Edge jitter error (maybe fixed) : 0
Atom jitter error (maybe fixed) : 0
Drift error (maybe fixed) : 0
Dropped bytes error (maybe fixed) : 0
Duplicated bytes error (maybe fixed) : 0
Inconsistency in error sectors : 0
Track 08
Filename : /Adele - 21 [2011] flac/08 Adele - I'll Be Waiting.flac
Track gain : -11.73 dB
Peak : 0.998840
CRC32 hash (test run) : 740496F5
CRC32 hash : 740496F5
CRC32 hash (skip zero) : 89728BCD
AccurateRip signature : 572F16C7
->Accurately ripped! (confidence 6)
Statistics
Read error : 0
Skipped (treated as error) : 0
Edge jitter error (maybe fixed) : 0
Atom jitter error (maybe fixed) : 0
Drift error (maybe fixed) : 0
Dropped bytes error (maybe fixed) : 0
Duplicated bytes error (maybe fixed) : 0
Inconsistency in error sectors : 0
Track 09
Filename : /Adele - 21 [2011] flac/09 Adele - One And Only.flac
Track gain : -9.05 dB
Peak : 0.997681
CRC32 hash (test run) : A238EFEB
CRC32 hash : A238EFEB
CRC32 hash (skip zero) : 3E8F3302
AccurateRip signature : 12D57DBC
->Accurately ripped! (confidence 6)
Statistics
Read error : 0
Skipped (treated as error) : 0
Edge jitter error (maybe fixed) : 0
Atom jitter error (maybe fixed) : 0
Drift error (maybe fixed) : 0
Dropped bytes error (maybe fixed) : 0
Duplicated bytes error (maybe fixed) : 0
Inconsistency in error sectors : 0
Track 10
Filename : /Adele - 21 [2011] flac/10 Adele - Lovesong.flac
Pre-gap length : 00:01:26
Track gain : -7.91 dB
Peak : 0.997681
CRC32 hash (test run) : D14D516C
CRC32 hash : D14D516C
CRC32 hash (skip zero) : 7DDEE140
AccurateRip signature : CE105882
->Accurately ripped! (confidence 6)
Statistics
Read error : 0
Skipped (treated as error) : 0
Edge jitter error (maybe fixed) : 0
Atom jitter error (maybe fixed) : 0
Drift error (maybe fixed) : 0
Dropped bytes error (maybe fixed) : 0
Duplicated bytes error (maybe fixed) : 0
Inconsistency in error sectors : 0
Track 11
Filename : /Adele - 21 [2011] flac/11 Adele - Someone Like You.flac
Track gain : -8.06 dB
Peak : 0.997650
CRC32 hash (test run) : E49898AE
CRC32 hash : E49898AE
CRC32 hash (skip zero) : 6F3633C4
AccurateRip signature : 9F40A0E3
->Accurately ripped! (confidence 6)
Statistics
Read error : 0
Skipped (treated as error) : 0
Edge jitter error (maybe fixed) : 0
Atom jitter error (maybe fixed) : 0
Drift error (maybe fixed) : 0
Dropped bytes error (maybe fixed) : 0
Duplicated bytes error (maybe fixed) : 0
Inconsistency in error sectors : 0
No errors occurred
End of status report
 
UK Deluxe Edition
Exact Audio Copy V1.0 beta 3 from 29. August 2011
EAC extraction logfile from 13. June 2014, 13:18
Adele / 21 (Bonus Tracks - HN826CDE)
Used drive : HL-DT-STBDDVDRW CH12NS30 Adapter: 0 ID: 0
Read mode : Secure
Utilize accurate stream : Yes
Defeat audio cache : Yes
Make use of C2 pointers : No
Read offset correction : 6
Overread into Lead-In and Lead-Out : No
Fill up missing offset samples with silence : Yes
Delete leading and trailing silent blocks : No
Null samples used in CRC calculations : Yes
Used interface : Native Win32 interface for Win NT & 2000
Gap handling : Appended to previous track
Used output format : User Defined Encoder
Selected bitrate : 896 kBit/s
Quality : High
Add ID3 tag : Yes
Command line compressor : C:\Program Files (x86)\Exact Audio Copy\Flac\flac.exe
Additional command line options : -8 -V -T "ARTIST=%artist%" -T "TITLE=%title%" -T "ALBUM=%albumtitle%" -T "DATE=%year%" -T "TRACKNUMBER=%tracknr%" -T "GENRE=%genre%" -T "PERFORMER=%albuminterpret%" -T "COMPOSER=%composer%" %haslyrics%--tag-from-file=LYRICS="%lyricsfile%"%haslyrics% -T "ALBUMARTIST=%albumartist%" -T "DISCNUMBER=%cdnumber%" -T "TOTALDISCS=%totalcds%" -T "TOTALTRACKS=%numtracks%" -T "COMMENT=%comment%" %source% -o %dest%
TOC of the extracted CD
Track | Start | Length | Start sector | End sector
---------------------------------------------------------
1 | 0:00.00 | 3:49.22 | 0 | 17196
2 | 3:49.22 | 3:43.20 | 17197 | 33941
3 | 7:32.42 | 4:10.10 | 33942 | 52701
4 | 11:42.52 | 4:03.15 | 52702 | 70941
5 | 15:45.67 | 4:01.52 | 70942 | 89068
6 | 19:47.44 | 4:37.71 | 89069 | 109914
7 | 24:25.40 | 3:48.16 | 109915 | 127030
8 | 28:13.56 | 4:01.49 | 127031 | 145154
9 | 32:15.30 | 5:48.12 | 145155 | 171266
10 | 38:03.42 | 5:16.21 | 171267 | 194987
11 | 43:19.63 | 4:43.43 | 194988 | 216255
12 | 48:03.31 | 3:08.10 | 216256 | 230365
13 | 51:11.41 | 3:26.28 | 230366 | 245843
Track 1
Filename D:\WHATCD\Adele\2011 - 21 (Bonus Tracks - HN826CDE)\01 - Rolling In the Deep.wav
Pre-gap length 0:00:02.00
Peak level 99.7 %
Extraction speed 2.0 X
Track quality 100.0 %
Test CRC BB18BFB0
Copy CRC BB18BFB0
Accurately ripped (confidence 11) [533D19A2] (AR v2)
Copy OK
Track 2
Filename D:\WHATCD\Adele\2011 - 21 (Bonus Tracks - HN826CDE)\02 - Rumour Has It.wav
Peak level 99.7 %
Extraction speed 2.2 X
Track quality 100.0 %
Test CRC F483C9B8
Copy CRC F483C9B8
Accurately ripped (confidence 11) [362C9F4C] (AR v2)
Copy OK
Track 3
Filename D:\WHATCD\Adele\2011 - 21 (Bonus Tracks - HN826CDE)\03 - Turning Tables.wav
Peak level 99.8 %
Extraction speed 2.5 X
Track quality 100.0 %
Test CRC 5641A2C1
Copy CRC 5641A2C1
Accurately ripped (confidence 11) [5E20CE92] (AR v2)
Copy OK
Track 4
Filename D:\WHATCD\Adele\2011 - 21 (Bonus Tracks - HN826CDE)\04 - Don't You Remember.wav
Peak level 99.7 %
Extraction speed 2.6 X
Track quality 100.0 %
Test CRC 88B5134A
Copy CRC 88B5134A
Accurately ripped (confidence 11) [B6FFBAF5] (AR v2)
Copy OK
Track 5
Filename D:\WHATCD\Adele\2011 - 21 (Bonus Tracks - HN826CDE)\05 - Set Fire To the Rain.wav
Peak level 99.8 %
Extraction speed 2.4 X
Track quality 99.9 %
Test CRC 3CC44B71
Copy CRC 3CC44B71
Accurately ripped (confidence 11) [45A5B621] (AR v2)
Copy OK
Track 6
Filename D:\WHATCD\Adele\2011 - 21 (Bonus Tracks - HN826CDE)\06 - He Won't Go.wav
Peak level 99.7 %
Extraction speed 3.1 X
Track quality 100.0 %
Test CRC AB71AD23
Copy CRC AB71AD23
Accurately ripped (confidence 11) [7D592680] (AR v2)
Copy OK
Track 7
Filename D:\WHATCD\Adele\2011 - 21 (Bonus Tracks - HN826CDE)\07 - Take It All.wav
Peak level 99.8 %
Extraction speed 3.1 X
Track quality 100.0 %
Test CRC FCDEEA4F
Copy CRC FCDEEA4F
Accurately ripped (confidence 11) [03816D7D] (AR v2)
Copy OK
Track 8
Filename D:\WHATCD\Adele\2011 - 21 (Bonus Tracks - HN826CDE)\08 - I'll Be Waiting.wav
Peak level 99.8 %
Extraction speed 2.9 X
Track quality 99.9 %
Test CRC E16C64BE
Copy CRC E16C64BE
Accurately ripped (confidence 11) [53C33700] (AR v2)
Copy OK
Track 9
Filename D:\WHATCD\Adele\2011 - 21 (Bonus Tracks - HN826CDE)\09 - One and Only.wav
Peak level 99.7 %
Extraction speed 3.6 X
Track quality 100.0 %
Test CRC 85D2FFC5
Copy CRC 85D2FFC5
Accurately ripped (confidence 11) [1399EBAC] (AR v2)
Copy OK
Track 10
Filename D:\WHATCD\Adele\2011 - 21 (Bonus Tracks - HN826CDE)\10 - Lovesong.wav
Peak level 99.7 %
Extraction speed 3.8 X
Track quality 100.0 %
Test CRC 1FAC274D
Copy CRC 1FAC274D
Accurately ripped (confidence 11) [0A63314A] (AR v2)
Copy OK
Track 11
Filename D:\WHATCD\Adele\2011 - 21 (Bonus Tracks - HN826CDE)\11 - Someone Like You.wav
Peak level 99.7 %
Extraction speed 3.6 X
Track quality 100.0 %
Test CRC 4FA9B282
Copy CRC 4FA9B282
Accurately ripped (confidence 11) [8D175232] (AR v2)
Copy OK
Track 12
Filename D:\WHATCD\Adele\2011 - 21 (Bonus Tracks - HN826CDE)\12 - If It Hadn't Been For Love.wav
Peak level 98.9 %
Extraction speed 3.8 X
Track quality 100.0 %
Test CRC A14998F4
Copy CRC A14998F4
Accurately ripped (confidence 11) [70635108] (AR v2)
Copy OK
Track 13
Filename D:\WHATCD\Adele\2011 - 21 (Bonus Tracks - HN826CDE)\13 - Hiding My Heart.wav
Peak level 98.8 %
Extraction speed 3.9 X
Track quality 100.0 %
Test CRC 443CF491
Copy CRC 443CF491
Accurately ripped (confidence 11) [F2DEA0C9] (AR v2)
Copy OK
All tracks accurately ripped
No errors occurred
End of status report
---- CUETools DB Plugin V2.1.3
[CTDB TOCID: RKqW7UxoLSTT7H_V_mLV.Avw2bU-] found, Submit result: already submitted
[7e5f2e9b] (44/45) Accurately ripped
[034c912f] (01/45) No match
==== Log checksum 35B63A899C08046834D035E1B4D706C3776CD1BAB8CB765331F5E5DB25FE51D4 ====
 
Japan & Singapore Deluxe Edition
Exact Audio Copy V1.0 beta 3 from 29. August 2011
EAC extraction logfile from 6. June 2012, 13:16
Adele / 21
Used drive : MATSHITABD-MLT UJ240AF Adapter: 2 ID: 0
Read mode : Secure
Utilize accurate stream : Yes
Defeat audio cache : Yes
Make use of C2 pointers : No
Read offset correction : 103
Overread into Lead-In and Lead-Out : No
Fill up missing offset samples with silence : Yes
Delete leading and trailing silent blocks : No
Null samples used in CRC calculations : Yes
Used interface : Native Win32 interface for Win NT & 2000
Gap handling : Appended to previous track
Used output format : User Defined Encoder
Selected bitrate : 896 kBit/s
Quality : High
Add ID3 tag : No
Command line compressor : C:\Program Files (x86)\Exact Audio Copy\Flac\flac.exe
Additional command line options : -8 -V -T "ARTIST=%artist%" -T "TITLE=%title%" -T "ALBUM=%albumtitle%" -T "DATE=%year%" -T "TRACKNUMBER=%tracknr%" -T "GENRE=%genre%" -T "PERFORMER=%albuminterpret%" -T "COMPOSER=%composer%" %haslyrics%--tag-from-file=LYRICS="%lyricsfile%"%haslyrics% -T "ALBUMARTIST=%albumartist%" -T "DISCNUMBER=%cdnumber%" -T "TOTALDISCS=%totalcds%" -T "TOTALTRACKS=%numtracks%" -T "COMMENT=%comment%" %source% -o %dest%
TOC of the extracted CD
Track | Start | Length | Start sector | End sector
---------------------------------------------------------
1 | 0:00.00 | 3:49.22 | 0 | 17196
2 | 3:49.22 | 3:43.20 | 17197 | 33941
3 | 7:32.42 | 4:10.10 | 33942 | 52701
4 | 11:42.52 | 4:03.15 | 52702 | 70941
5 | 15:45.67 | 4:01.52 | 70942 | 89068
6 | 19:47.44 | 4:37.71 | 89069 | 109914
7 | 24:25.40 | 3:48.16 | 109915 | 127030
8 | 28:13.56 | 4:01.49 | 127031 | 145154
9 | 32:15.30 | 5:48.12 | 145155 | 171266
10 | 38:03.42 | 5:16.21 | 171267 | 194987
11 | 43:19.63 | 4:55.29 | 194988 | 217141
12 | 48:15.17 | 3:36.45 | 217142 | 233386
13 | 51:51.62 | 4:22.06 | 233387 | 253042
14 | 56:13.68 | 4:19.50 | 253043 | 272517
15 | 60:33.43 | 5:16.32 | 272518 | 296249
Track 1
Filename C:\Lossless\Adele\Adele - 21 (2011) [FLAC] {BGJ-10107}\01 - Rolling in the Deep.wav
Pre-gap length 0:00:02.00
Peak level 99.7 %
Extraction speed 1.5 X
Track quality 100.0 %
Test CRC 2E0A8081
Copy CRC 2E0A8081
Accurately ripped (confidence 4) [80A65F50] (AR v2)
Copy OK
Track 2
Filename C:\Lossless\Adele\Adele - 21 (2011) [FLAC] {BGJ-10107}\02 - Rumour Has It.wav
Peak level 99.7 %
Extraction speed 1.7 X
Track quality 100.0 %
Test CRC 8552E827
Copy CRC 8552E827
Accurately ripped (confidence 4) [6CE24E4A] (AR v2)
Copy OK
Track 3
Filename C:\Lossless\Adele\Adele - 21 (2011) [FLAC] {BGJ-10107}\03 - Turning Tables.wav
Peak level 99.8 %
Extraction speed 1.9 X
Track quality 100.0 %
Test CRC 7072F7B9
Copy CRC 7072F7B9
Accurately ripped (confidence 4) [EB15E0D0] (AR v2)
Copy OK
Track 4
Filename C:\Lossless\Adele\Adele - 21 (2011) [FLAC] {BGJ-10107}\04 - Don't You Remember.wav
Peak level 99.7 %
Extraction speed 2.0 X
Track quality 100.0 %
Test CRC 7B4332E9
Copy CRC 7B4332E9
Accurately ripped (confidence 4) [D39EE604] (AR v2)
Copy OK
Track 5
Filename C:\Lossless\Adele\Adele - 21 (2011) [FLAC] {BGJ-10107}\05 - Set Fire to the Rain.wav
Peak level 99.8 %
Extraction speed 1.9 X
Track quality 99.9 %
Test CRC 11B1E707
Copy CRC 11B1E707
Accurately ripped (confidence 4) [86C1DF73] (AR v2)
Copy OK
Track 6
Filename C:\Lossless\Adele\Adele - 21 (2011) [FLAC] {BGJ-10107}\06 - He Won't Go.wav
Peak level 99.7 %
Extraction speed 2.3 X
Track quality 100.0 %
Test CRC B00214F8
Copy CRC B00214F8
Accurately ripped (confidence 4) [78EF553D] (AR v2)
Copy OK
Track 7
Filename C:\Lossless\Adele\Adele - 21 (2011) [FLAC] {BGJ-10107}\07 - Take It All.wav
Peak level 99.8 %
Extraction speed 2.3 X
Track quality 100.0 %
Test CRC B35C53F9
Copy CRC B35C53F9
Accurately ripped (confidence 4) [5B4C49FF] (AR v2)
Copy OK
Track 8
Filename C:\Lossless\Adele\Adele - 21 (2011) [FLAC] {BGJ-10107}\08 - I'll Be Waiting.wav
Peak level 99.8 %
Extraction speed 2.2 X
Track quality 99.9 %
Test CRC 5FF9A200
Copy CRC 5FF9A200
Accurately ripped (confidence 4) [AED149A4] (AR v2)
Copy OK
Track 9
Filename C:\Lossless\Adele\Adele - 21 (2011) [FLAC] {BGJ-10107}\09 - One and Only.wav
Peak level 99.7 %
Extraction speed 2.7 X
Track quality 100.0 %
Test CRC 545C77D7
Copy CRC 545C77D7
Accurately ripped (confidence 4) [F2381940] (AR v2)
Copy OK
Track 10
Filename C:\Lossless\Adele\Adele - 21 (2011) [FLAC] {BGJ-10107}\10 - Lovesong.wav
Peak level 99.7 %
Extraction speed 2.8 X
Track quality 100.0 %
Test CRC A4B26270
Copy CRC A4B26270
Accurately ripped (confidence 4) [4FA9CD34] (AR v2)
Copy OK
Track 11
Filename C:\Lossless\Adele\Adele - 21 (2011) [FLAC] {BGJ-10107}\11 - Someone Like You.wav
Peak level 99.7 %
Extraction speed 2.9 X
Track quality 100.0 %
Test CRC 19417A7E
Copy CRC 19417A7E
Accurately ripped (confidence 4) [4ABD8363] (AR v2)
Copy OK
Track 12
Filename C:\Lossless\Adele\Adele - 21 (2011) [FLAC] {BGJ-10107}\12 - I Found a Boy (Bonus Track).wav
Pre-gap length 0:00:09.41
Peak level 84.1 %
Extraction speed 2.9 X
Track quality 100.0 %
Test CRC BCA43678
Copy CRC BCA43678
Accurately ripped (confidence 4) [6B2569E7] (AR v2)
Copy OK
Track 13
Filename C:\Lossless\Adele\Adele - 21 (2011) [FLAC] {BGJ-10107}\13 - Turning Tables (Live Acoustic).wav
Pre-gap length 0:00:00.67
Peak level 100.0 %
Extraction speed 3.1 X
Track quality 100.0 %
Test CRC 4F9E0E3D
Copy CRC 4F9E0E3D
Accurately ripped (confidence 4) [90ED13B4] (AR v2)
Copy OK
Track 14
Filename C:\Lossless\Adele\Adele - 21 (2011) [FLAC] {BGJ-10107}\14 - Don't You Remember (Live Acoustic).wav
Pre-gap length 0:00:01.40
Peak level 98.4 %
Extraction speed 3.1 X
Track quality 100.0 %
Test CRC 44858A74
Copy CRC 44858A74
Accurately ripped (confidence 4) [F0715469] (AR v2)
Copy OK
Track 15
Filename C:\Lossless\Adele\Adele - 21 (2011) [FLAC] {BGJ-10107}\15 - Someone Like You (Live Acoustic).wav
Pre-gap length 0:00:01.33
Peak level 98.4 %
Extraction speed 3.0 X
Track quality 99.9 %
Test CRC ACABD9A1
Copy CRC ACABD9A1
Accurately ripped (confidence 4) [D6B391BB] (AR v2)
Copy OK
All tracks accurately ripped
No errors occurred
End of status report
---- CUETools DB Plugin V2.1.3
[CTDB TOCID: iFnaZT8nw3GpwN4uew07ubVNMN0-] found, Submit result: iFnaZT8nw3GpwN4uew07ubVNMN0- has been confirmed
[6371f980] (09/10) Accurately ripped
[99700bd7] (01/10) No match
==== Log checksum C6291150FD20E41DA89E00E522F1E8D5637E4DF74902BC1B2CD99982F602C674 ====
 
Target Deluxe Edition
Exact Audio Copy V0.99 prebeta 5 from 4. May 2009
EAC extraction logfile from 24. February 2011, 17:32
Adele / 21 (Target Bonus Disc)
Used drive : HL-DT-STDVDRAM GT20L Adapter: 1 ID: 0
Read mode : Secure
Utilize accurate stream : Yes
Defeat audio cache : Yes
Make use of C2 pointers : No
Read offset correction : 667
Overread into Lead-In and Lead-Out : No
Fill up missing offset samples with silence : Yes
Delete leading and trailing silent blocks : No
Null samples used in CRC calculations : Yes
Used interface : Native Win32 interface for Win NT & 2000
Gap handling : Appended to previous track
Used output format : User Defined Encoder
Selected bitrate : 320 kBit/s
Quality : High
Add ID3 tag : No
Command line compressor : C:\Program Files (x86)\Exact Audio Copy\Flac\flac.exe
Additional command line options : -V -8 -T "artist=%a" -T "title=%t" -T "album=%g" -T "date=%y" -T "tracknumber=%n" -T "genre=%m" %s
TOC of the extracted CD
Track | Start | Length | Start sector | End sector
---------------------------------------------------------
1 | 0:00.00 | 3:55.66 | 0 | 17690
2 | 3:55.66 | 5:15.28 | 17691 | 41343
3 | 9:11.19 | 4:21.12 | 41344 | 60930
4 | 13:32.31 | 4:18.10 | 60931 | 80290
Track 1
Filename C:\Adele\01 Need You Now (feat. Darius Rucker) (Live at CMT Artists of the Year Awards).wav
Pre-gap length 0:00:02.00
Peak level 99.8 %
Track quality 100.0 %
Test CRC C7E4B2F2
Copy CRC C7E4B2F2
Copy OK
Track 2
Filename C:\Adele\02 Someone Like You (Live Acoustic).wav
Peak level 98.4 %
Track quality 100.0 %
Test CRC 4E1539F2
Copy CRC 4E1539F2
Copy OK
Track 3
Filename C:\Adele\03 Turning Tables (Live Acoustic).wav
Pre-gap length 0:00:00.66
Peak level 100.0 %
Track quality 100.0 %
Test CRC 3F860062
Copy CRC 3F860062
Copy OK
Track 4
Filename C:\Adele\04 Don't You Remember (Live Acoustic).wav
Pre-gap length 0:00:00.66
Peak level 98.4 %
Track quality 100.0 %
Test CRC 0E97FB0D
Copy CRC 0E97FB0D
Copy OK
No errors occurred
End of status report
 
Содержание индексной карты (.CUE)
 
Standart
TITLE "21"
PERFORMER "Adele"
REM GENRE "R&B"
REM DATE 2011
REM DISCNUMBER 1
REM TOTALDISCS 1
REM DISCID 9C0B470B
FILE "01 Adele - Rolling In The Deep.wav" WAVE
TRACK 01 AUDIO
TITLE "Rolling In The Deep"
SONGWRITER "Adele Adkins/Paul Epworth"
ISRC GBBKS1000335
INDEX 01 00:00:00
FILE "02 Adele - Rumour Has It.wav" WAVE
TRACK 02 AUDIO
TITLE "Rumour Has It"
SONGWRITER "Adele Adkins/Ryan Tedder"
ISRC GBBKS1000349
INDEX 01 00:00:00
TRACK 03 AUDIO
TITLE "Turning Tables"
SONGWRITER "Ryan Tedder/Adele Adkins"
ISRC GBBKS1000346
INDEX 00 03:41:32
FILE "03 Adele - Turning Tables.wav" WAVE
INDEX 01 00:00:00
FILE "04 Adele - Don't You Remember.wav" WAVE
TRACK 04 AUDIO
TITLE "Don't You Remember"
SONGWRITER "Adele Adkins/Dan Wilson"
ISRC GBBKS1000344
INDEX 01 00:00:00
FILE "05 Adele - Set Fire To The Rain.wav" WAVE
TRACK 05 AUDIO
TITLE "Set Fire To The Rain"
SONGWRITER "Fraser T. Smith/Adele Adkins"
ISRC GBBKS1000348
INDEX 01 00:00:00
FILE "06 Adele - He Won't Go.wav" WAVE
TRACK 06 AUDIO
TITLE "He Won't Go"
SONGWRITER "Paul Epworth/Adele Adkins"
ISRC GBBKS1000353
INDEX 01 00:00:00
FILE "07 Adele - Take It All.wav" WAVE
TRACK 07 AUDIO
TITLE "Take It All"
SONGWRITER "Francis White/Adele Adkins"
ISRC GBBKS1000347
INDEX 01 00:00:00
FILE "08 Adele - I'll Be Waiting.wav" WAVE
TRACK 08 AUDIO
TITLE "I'll Be Waiting"
SONGWRITER "Adele Adkins/Paul Epworth"
ISRC GBBKS1000345
INDEX 01 00:00:00
FILE "09 Adele - One And Only.wav" WAVE
TRACK 09 AUDIO
TITLE "One And Only"
SONGWRITER "Adele Adkins/Dan Wilson/Greg Wells"
ISRC GBBKS1000358
INDEX 01 00:00:00
TRACK 10 AUDIO
TITLE "Lovesong"
SONGWRITER "Porl Thompson/Robert Smith/Simon Gallup/Laurence Tolhurst/Roger O'Donnell/Boris Williams"
ISRC GBBKS1000352
INDEX 00 05:46:61
FILE "10 Adele - Lovesong.wav" WAVE
INDEX 01 00:00:00
FILE "11 Adele - Someone Like You.wav" WAVE
TRACK 11 AUDIO
TITLE "Someone Like You"
SONGWRITER "Dan Wilson/Adele Adkins"
ISRC GBBKS1000351
INDEX 01 00:00:00
 
UK Deluxe Edition
REM GENRE Other
REM DATE 2011
REM COMMENT "CUE Corrector v. 6.14.1"
REM DISCNUMBER 1
PERFORMER Adele
TITLE "21 (Bonus Tracks - HN826CDE)"
FILE "01 - Rolling In the Deep.wav" WAVE
TRACK 1 AUDIO
TITLE "Rolling In The Deep"
PERFORMER Adele
INDEX 01 00:00:00
FILE "02 - Rumour Has It.wav" WAVE
TRACK 2 AUDIO
TITLE "Rumour Has It"
PERFORMER Adele
INDEX 01 00:00:00
FILE "03 - Turning Tables.wav" WAVE
TRACK 3 AUDIO
TITLE "Turning Tables"
PERFORMER Adele
INDEX 01 00:00:00
FILE "04 - Don't You Remember.wav" WAVE
TRACK 4 AUDIO
TITLE "Don't You Remember"
PERFORMER Adele
INDEX 01 00:00:00
FILE "05 - Set Fire To the Rain.wav" WAVE
TRACK 5 AUDIO
TITLE "Set Fire To The Rain"
PERFORMER Adele
INDEX 01 00:00:00
FILE "06 - He Won't Go.wav" WAVE
TRACK 6 AUDIO
TITLE "He Won't Go"
PERFORMER Adele
INDEX 01 00:00:00
FILE "07 - Take It All.wav" WAVE
TRACK 7 AUDIO
TITLE "Take It All"
PERFORMER Adele
INDEX 01 00:00:00
FILE "08 - I'll Be Waiting.wav" WAVE
TRACK 8 AUDIO
TITLE "I'll Be Waiting"
PERFORMER Adele
INDEX 01 00:00:00
FILE "09 - One and Only.wav" WAVE
TRACK 9 AUDIO
TITLE "One And Only"
PERFORMER Adele
INDEX 01 00:00:00
FILE "10 - Lovesong.wav" WAVE
TRACK 10 AUDIO
TITLE Lovesong
PERFORMER Adele
INDEX 01 00:00:00
FILE "11 - Someone Like You.wav" WAVE
TRACK 11 AUDIO
TITLE "Someone Like You"
PERFORMER Adele
INDEX 01 00:00:00
FILE "12 - If It Hadn't Been For Love.wav" WAVE
TRACK 12 AUDIO
TITLE "If It Hadn't Been For Love"
PERFORMER Adele
INDEX 01 00:00:00
FILE "13 - Hiding My Heart.wav" WAVE
TRACK 13 AUDIO
TITLE "Hiding My Heart"
PERFORMER Adele
INDEX 01 00:00:00
 
Japan & Singapore Deluxe Edition
REM GENRE Pop
REM DATE 2011
REM DISCID E10F6E0F
REM COMMENT "ExactAudioCopy v1.0b3"
PERFORMER "Adele"
TITLE "21"
FILE "01 - Rolling in the Deep.wav" WAVE
TRACK 01 AUDIO
TITLE "Rolling in the Deep"
PERFORMER "Adele"
ISRC GBBKS1000335
INDEX 01 00:00:00
FILE "02 - Rumour Has It.wav" WAVE
TRACK 02 AUDIO
TITLE "Rumour Has It"
PERFORMER "Adele"
ISRC GBBKS1000349
INDEX 01 00:00:00
FILE "03 - Turning Tables.wav" WAVE
TRACK 03 AUDIO
TITLE "Turning Tables"
PERFORMER "Adele"
ISRC GBBKS1000346
INDEX 01 00:00:00
FILE "04 - Don't You Remember.wav" WAVE
TRACK 04 AUDIO
TITLE "Don't You Remember"
PERFORMER "Adele"
ISRC GBBKS1000344
INDEX 01 00:00:00
FILE "05 - Set Fire to the Rain.wav" WAVE
TRACK 05 AUDIO
TITLE "Set Fire to the Rain"
PERFORMER "Adele"
ISRC GBBKS1000348
INDEX 01 00:00:00
FILE "06 - He Won't Go.wav" WAVE
TRACK 06 AUDIO
TITLE "He Won't Go"
PERFORMER "Adele"
ISRC GBBKS1000353
INDEX 01 00:00:00
FILE "07 - Take It All.wav" WAVE
TRACK 07 AUDIO
TITLE "Take It All"
PERFORMER "Adele"
ISRC GBBKS1000347
INDEX 01 00:00:00
FILE "08 - I'll Be Waiting.wav" WAVE
TRACK 08 AUDIO
TITLE "I'll Be Waiting"
PERFORMER "Adele"
ISRC GBBKS1000345
INDEX 01 00:00:00
FILE "09 - One and Only.wav" WAVE
TRACK 09 AUDIO
TITLE "One and Only"
PERFORMER "Adele"
ISRC GBBKS1000358
INDEX 01 00:00:00
FILE "10 - Lovesong.wav" WAVE
TRACK 10 AUDIO
TITLE "Lovesong"
PERFORMER "Adele"
ISRC GBBKS1000352
INDEX 01 00:00:00
FILE "11 - Someone Like You.wav" WAVE
TRACK 11 AUDIO
TITLE "Someone Like You"
PERFORMER "Adele"
ISRC GBBKS1000351
INDEX 01 00:00:00
TRACK 12 AUDIO
TITLE "I Found a Bot (Bonus Track)"
PERFORMER "Adele"
ISRC GBBKS1000360
INDEX 00 04:45:63
FILE "12 - I Found a Boy (Bonus Track).wav" WAVE
INDEX 01 00:00:00
TRACK 13 AUDIO
TITLE "Turning Tables (Live Acoustic)"
PERFORMER "Adele"
ISRC GBBKS1000370
INDEX 00 03:35:53
FILE "13 - Turning Tables (Live Acoustic).wav" WAVE
INDEX 01 00:00:00
TRACK 14 AUDIO
TITLE "Don't You Remember (Live Acoustic)"
PERFORMER "Adele"
ISRC GBBKS1000361
INDEX 00 04:20:41
FILE "14 - Don't You Remember (Live Acoustic).wav" WAVE
INDEX 01 00:00:00
TRACK 15 AUDIO
TITLE "Someone Like You (Live Acoustic)"
PERFORMER "Adele"
ISRC GBBKS1000355
INDEX 00 04:18:17
FILE "15 - Someone Like You (Live Acoustic).wav" WAVE
INDEX 01 00:00:00
 
Target Deluxe Edition
REM DATE 2011
REM DISCID 28042E04
REM COMMENT "ExactAudioCopy v0.99pb5"
PERFORMER "Adele"
TITLE "21 (Target Bonus Disc)"
FILE "01 Need You Now (feat. Darius Rucker) (Live at CMT Artists of the Year Awards).wav" WAVE
TRACK 01 AUDIO
TITLE "Need You Now (feat. Darius Rucker) (Live at CMT Artists of the Year Awards)"
PERFORMER "Adele"
INDEX 01 00:00:00
FILE "02 Someone Like You (Live Acoustic).wav" WAVE
TRACK 02 AUDIO
TITLE "Someone Like You (Live Acoustic)"
PERFORMER "Adele"
INDEX 01 00:00:00
TRACK 03 AUDIO
TITLE "Turning Tables (Live Acoustic)"
PERFORMER "Adele"
INDEX 00 05:14:53
FILE "03 Turning Tables (Live Acoustic).wav" WAVE
INDEX 01 00:00:00
TRACK 04 AUDIO
TITLE "Don't You Remember (Live Acoustic)"
PERFORMER "Adele"
INDEX 00 04:20:37
FILE "04 Don't You Remember (Live Acoustic).wav" WAVE
INDEX 01 00:00:00
 
Лог проверки качества
 
Standart
CUE Corrector v.6.14.1 (build 516)
------------------------------------------------------------------------
--- / 21
Folder: Standart
audio files:
01 Adele - Rolling In The Deep [03:49.22, FLAC, 44100Hz, Stereo, 16bit; 25,80 MB (27 052 687 bytes)]
02 Adele - Rumour Has It [03:43.20, FLAC, 44100Hz, Stereo, 16bit; 24,62 MB (25 818 838 bytes)]
03 Adele - Turning Tables [04:10.10, FLAC, 44100Hz, Stereo, 16bit; 23,46 MB (24 594 629 bytes)]
04 Adele - Don't You Remember [04:03.15, FLAC, 44100Hz, Stereo, 16bit; 24,77 MB (25 977 540 bytes)]
05 Adele - Set Fire To The Rain [04:01.52, FLAC, 44100Hz, Stereo, 16bit; 27,97 MB (29 330 298 bytes)]
06 Adele - He Won't Go [04:37.71, FLAC, 44100Hz, Stereo, 16bit; 29,58 MB (31 013 555 bytes)]
07 Adele - Take It All [03:48.16, FLAC, 44100Hz, Stereo, 16bit; 19,09 MB (20 019 281 bytes)]
08 Adele - I'll Be Waiting [04:01.49, FLAC, 44100Hz, Stereo, 16bit; 28,88 MB (30 279 498 bytes)]
09 Adele - One And Only [05:48.12, FLAC, 44100Hz, Stereo, 16bit; 36,28 MB (38 043 402 bytes)]
10 Adele - Lovesong [05:16.21, FLAC, 44100Hz, Stereo, 16bit; 29,75 MB (31 196 764 bytes)]
11 Adele - Someone Like You [04:47.41, FLAC, 44100Hz, Stereo, 16bit; 25,46 MB (26 694 872 bytes)]
Accuracy: -m8
File 01 Adele - Rolling In The Deep - 100% CDDA [03:49.22]
Detected average hi-boundary frequency : 2.032333e+004 Hz
Detected average lo-boundary frequency : 1.372377e+004 Hz
Detected average hi-cut frequency : 2.180802e+004 Hz
Detected average lo-cut frequency : 1.144670e+004 Hz
Maximum probablis boundary frequency : 2.189100e+004 Hz
Coefficient of nonlinearity of a phase : 1.114016e+000
First order smothness : 4.065934e-001
Second order smothness : 6.007326e-001
File 02 Adele - Rumour Has It - 100% CDDA [03:43.20]
Detected average hi-boundary frequency : 2.026094e+004 Hz
Detected average lo-boundary frequency : 1.413584e+004 Hz
Detected average hi-cut frequency : 2.170983e+004 Hz
Detected average lo-cut frequency : 9.462673e+003 Hz
Maximum probablis boundary frequency : 2.189100e+004 Hz
Coefficient of nonlinearity of a phase : 1.640355e-001
First order smothness : 4.000000e-001
Second order smothness : 5.547170e-001
File 03 Adele - Turning Tables - 100% CDDA [04:10.10]
Detected average hi-boundary frequency : 2.032629e+004 Hz
Detected average lo-boundary frequency : 1.503613e+004 Hz
Detected average hi-cut frequency : 2.104067e+004 Hz
Detected average lo-cut frequency : 1.136042e+004 Hz
Maximum probablis boundary frequency : 2.190200e+004 Hz
Coefficient of nonlinearity of a phase : 1.962423e-001
First order smothness : 4.026846e-001
Second order smothness : 6.610738e-001
File 04 Adele - Don't You Remember - 100% CDDA [04:03.15]
Detected average hi-boundary frequency : 2.031433e+004 Hz
Detected average lo-boundary frequency : 1.417536e+004 Hz
Detected average hi-cut frequency : 2.167108e+004 Hz
Detected average lo-cut frequency : 1.332727e+004 Hz
Maximum probablis boundary frequency : 2.189600e+004 Hz
Coefficient of nonlinearity of a phase : 7.105040e-001
First order smothness : 3.875433e-001
Second order smothness : 6.920415e-001
File 05 Adele - Set Fire To The Rain - 100% CDDA [04:01.52]
Detected average hi-boundary frequency : 2.053603e+004 Hz
Detected average lo-boundary frequency : 1.380121e+004 Hz
Detected average hi-cut frequency : 2.148834e+004 Hz
Detected average lo-cut frequency : 1.235713e+004 Hz
Maximum probablis boundary frequency : 2.189600e+004 Hz
Coefficient of nonlinearity of a phase : 3.274418e-001
First order smothness : 3.797909e-001
Second order smothness : 6.097561e-001
File 06 Adele - He Won't Go - 100% CDDA [04:37.71]
Detected average hi-boundary frequency : 2.030123e+004 Hz
Detected average lo-boundary frequency : 1.302167e+004 Hz
Detected average hi-cut frequency : 2.177342e+004 Hz
Detected average lo-cut frequency : 1.462811e+004 Hz
Maximum probablis boundary frequency : 2.190200e+004 Hz
Coefficient of nonlinearity of a phase : 4.157865e-001
First order smothness : 4.126506e-001
Second order smothness : 7.048193e-001
File 07 Adele - Take It All - 94% CDDA [03:48.16]
Detected average hi-boundary frequency : 2.032500e+004 Hz
Detected average lo-boundary frequency : 1.393835e+004 Hz
Detected average hi-cut frequency : 2.081097e+004 Hz
Detected average lo-cut frequency : 9.824707e+003 Hz
Maximum probablis boundary frequency : 2.171300e+004 Hz
Coefficient of nonlinearity of a phase : 1.069946e-001
First order smothness : 3.832117e-001
Second order smothness : 6.970803e-001
File 08 Adele - I'll Be Waiting - 100% CDDA [04:01.49]
Detected average hi-boundary frequency : 2.022834e+004 Hz
Detected average lo-boundary frequency : 1.527170e+004 Hz
Detected average hi-cut frequency : 2.181170e+004 Hz
Detected average lo-cut frequency : 1.049123e+004 Hz
Maximum probablis boundary frequency : 2.189600e+004 Hz
Coefficient of nonlinearity of a phase : 7.621037e-001
First order smothness : 4.355401e-001
Second order smothness : 5.644599e-001
File 09 Adele - One And Only - 100% CDDA [05:48.12]
Detected average hi-boundary frequency : 2.031748e+004 Hz
Detected average lo-boundary frequency : 1.397048e+004 Hz
Detected average hi-cut frequency : 2.175475e+004 Hz
Detected average lo-cut frequency : 1.303069e+004 Hz
Maximum probablis boundary frequency : 2.190200e+004 Hz
Coefficient of nonlinearity of a phase : 2.310755e-001
First order smothness : 3.927711e-001
Second order smothness : 6.795181e-001
File 10 Adele - Lovesong - 100% CDDA [05:16.21]
Detected average hi-boundary frequency : 2.016796e+004 Hz
Detected average lo-boundary frequency : 1.431608e+004 Hz
Detected average hi-cut frequency : 2.168642e+004 Hz
Detected average lo-cut frequency : 1.224693e+004 Hz
Maximum probablis boundary frequency : 2.189100e+004 Hz
Coefficient of nonlinearity of a phase : 4.943479e-001
First order smothness : 4.429708e-001
Second order smothness : 5.941645e-001
File 11 Adele - Someone Like You - 100% CDDA [04:47.41]
Detected average hi-boundary frequency : 2.022312e+004 Hz
Detected average lo-boundary frequency : 1.444943e+004 Hz
Detected average hi-cut frequency : 2.143297e+004 Hz
Detected average lo-cut frequency : 1.199381e+004 Hz
Maximum probablis boundary frequency : 2.191300e+004 Hz
Coefficient of nonlinearity of a phase : 6.917558e-002
First order smothness : 4.352941e-001
Second order smothness : 6.558824e-001
----- Summary: -----
These tracks looks like CDDA with probability 100%.
------------------------------------------------------------------------
ANALYZER:
auCDtect: CD records authenticity detector, version 0.8.2
Copyright (c) 2004 Oleg Berngardt. All rights reserved.
Copyright (c) 2004 Alexander Djourik. All rights reserved.
Time elapsed: 55.2 s
Log created at July 24, 2015 00:15:01
=== 807E47A5F62155403C7EF00C5A86FAAB90ACE6221BEE821A0CABA23549C324A6 ===
 
UK Deluxe Edition
CUE Corrector v.6.14.1 (build 516)
------------------------------------------------------------------------
Adele / 21 (Bonus Tracks - HN826CDE)
Folder: Bonus Tracks Edition
audio files:
01 - Rolling In the Deep [03:49.22, FLAC, 44100Hz, Stereo, 16bit; 25,87 MB (27 123 089 bytes)]
02 - Rumour Has It [03:43.20, FLAC, 44100Hz, Stereo, 16bit; 24,69 MB (25 893 421 bytes)]
03 - Turning Tables [04:10.10, FLAC, 44100Hz, Stereo, 16bit; 23,52 MB (24 663 340 bytes)]
04 - Don't You Remember [04:03.15, FLAC, 44100Hz, Stereo, 16bit; 24,84 MB (26 048 467 bytes)]
05 - Set Fire To the Rain [04:01.52, FLAC, 44100Hz, Stereo, 16bit; 28,05 MB (29 412 300 bytes)]
06 - He Won't Go [04:37.71, FLAC, 44100Hz, Stereo, 16bit; 29,64 MB (31 076 573 bytes)]
07 - Take It All [03:48.16, FLAC, 44100Hz, Stereo, 16bit; 19,16 MB (20 093 122 bytes)]
08 - I'll Be Waiting [04:01.49, FLAC, 44100Hz, Stereo, 16bit; 28,94 MB (30 346 216 bytes)]
09 - One and Only [05:48.12, FLAC, 44100Hz, Stereo, 16bit; 36,34 MB (38 102 450 bytes)]
10 - Lovesong [05:16.21, FLAC, 44100Hz, Stereo, 16bit; 29,82 MB (31 268 057 bytes)]
11 - Someone Like You [04:43.43, FLAC, 44100Hz, Stereo, 16bit; 25,49 MB (26 730 103 bytes)]
12 - If It Hadn't Been For Love [03:08.10, FLAC, 44100Hz, Stereo, 16bit; 15,55 MB (16 309 038 bytes)]
13 - Hiding My Heart [03:26.28, FLAC, 44100Hz, Stereo, 16bit; 16,23 MB (17 023 259 bytes)]
Accuracy: -m8
File 01 - Rolling In the Deep - 100% CDDA [03:49.22]
Detected average hi-boundary frequency : 2.001406e+004 Hz
Detected average lo-boundary frequency : 1.339954e+004 Hz
Detected average hi-cut frequency : 2.179127e+004 Hz
Detected average lo-cut frequency : 1.150841e+004 Hz
Maximum probablis boundary frequency : 2.190200e+004 Hz
Coefficient of nonlinearity of a phase : 1.064964e+000
First order smothness : 3.736264e-001
Second order smothness : 6.117216e-001
File 02 - Rumour Has It - 100% CDDA [03:43.20]
Detected average hi-boundary frequency : 2.047411e+004 Hz
Detected average lo-boundary frequency : 1.513594e+004 Hz
Detected average hi-cut frequency : 2.170976e+004 Hz
Detected average lo-cut frequency : 9.957466e+003 Hz
Maximum probablis boundary frequency : 2.190700e+004 Hz
Coefficient of nonlinearity of a phase : 2.931686e-001
First order smothness : 3.698113e-001
Second order smothness : 5.584906e-001
File 03 - Turning Tables - 100% CDDA [04:10.10]
Detected average hi-boundary frequency : 2.035082e+004 Hz
Detected average lo-boundary frequency : 1.530417e+004 Hz
Detected average hi-cut frequency : 2.098917e+004 Hz
Detected average lo-cut frequency : 1.084301e+004 Hz
Maximum probablis boundary frequency : 2.189100e+004 Hz
Coefficient of nonlinearity of a phase : 2.666754e-001
First order smothness : 3.724832e-001
Second order smothness : 6.778523e-001
File 04 - Don't You Remember - 100% CDDA [04:03.15]
Detected average hi-boundary frequency : 2.026409e+004 Hz
Detected average lo-boundary frequency : 1.438517e+004 Hz
Detected average hi-cut frequency : 2.165402e+004 Hz
Detected average lo-cut frequency : 1.236774e+004 Hz
Maximum probablis boundary frequency : 2.189100e+004 Hz
Coefficient of nonlinearity of a phase : 2.873542e-001
First order smothness : 3.564014e-001
Second order smothness : 7.128028e-001
File 05 - Set Fire To the Rain - 100% CDDA [04:01.52]
Detected average hi-boundary frequency : 2.040315e+004 Hz
Detected average lo-boundary frequency : 1.465270e+004 Hz
Detected average hi-cut frequency : 2.158975e+004 Hz
Detected average lo-cut frequency : 1.205762e+004 Hz
Maximum probablis boundary frequency : 2.189100e+004 Hz
Coefficient of nonlinearity of a phase : 8.428322e-001
First order smothness : 3.588850e-001
Second order smothness : 6.271777e-001
File 06 - He Won't Go - 100% CDDA [04:37.71]
Detected average hi-boundary frequency : 2.003474e+004 Hz
Detected average lo-boundary frequency : 1.335078e+004 Hz
Detected average hi-cut frequency : 2.176155e+004 Hz
Detected average lo-cut frequency : 1.441130e+004 Hz
Maximum probablis boundary frequency : 2.190700e+004 Hz
Coefficient of nonlinearity of a phase : 2.399356e-001
First order smothness : 4.126506e-001
Second order smothness : 7.198795e-001
File 07 - Take It All - 100% CDDA [03:48.16]
Detected average hi-boundary frequency : 2.022210e+004 Hz
Detected average lo-boundary frequency : 1.391958e+004 Hz
Detected average hi-cut frequency : 2.075642e+004 Hz
Detected average lo-cut frequency : 1.002655e+004 Hz
Maximum probablis boundary frequency : 2.189100e+004 Hz
Coefficient of nonlinearity of a phase : 2.419163e-001
First order smothness : 3.357664e-001
Second order smothness : 7.226277e-001
File 08 - I'll Be Waiting - 100% CDDA [04:01.49]
Detected average hi-boundary frequency : 2.033675e+004 Hz
Detected average lo-boundary frequency : 1.383727e+004 Hz
Detected average hi-cut frequency : 2.182181e+004 Hz
Detected average lo-cut frequency : 1.069564e+004 Hz
Maximum probablis boundary frequency : 2.189100e+004 Hz
Coefficient of nonlinearity of a phase : 9.742876e-001
First order smothness : 3.611111e-001
Second order smothness : 5.868056e-001
File 09 - One and Only - 99% CDDA [05:48.12]
Detected average hi-boundary frequency : 2.026373e+004 Hz
Detected average lo-boundary frequency : 1.353488e+004 Hz
Detected average hi-cut frequency : 2.172356e+004 Hz
Detected average lo-cut frequency : 1.328162e+004 Hz
Maximum probablis boundary frequency : 2.189100e+004 Hz
Coefficient of nonlinearity of a phase : 4.448575e-001
First order smothness : 3.927711e-001
Second order smothness : 6.963855e-001
File 10 - Lovesong - 100% CDDA [05:16.21]
Detected average hi-boundary frequency : 2.024995e+004 Hz
Detected average lo-boundary frequency : 1.347671e+004 Hz
Detected average hi-cut frequency : 2.165541e+004 Hz
Detected average lo-cut frequency : 1.088844e+004 Hz
Maximum probablis boundary frequency : 2.189100e+004 Hz
Coefficient of nonlinearity of a phase : 4.460896e-001
First order smothness : 3.740053e-001
Second order smothness : 6.710875e-001
File 11 - Someone Like You - 100% CDDA [04:43.43]
Detected average hi-boundary frequency : 2.047398e+004 Hz
Detected average lo-boundary frequency : 1.373841e+004 Hz
Detected average hi-cut frequency : 2.143415e+004 Hz
Detected average lo-cut frequency : 1.130201e+004 Hz
Maximum probablis boundary frequency : 2.189600e+004 Hz
Coefficient of nonlinearity of a phase : 1.229184e-001
First order smothness : 3.846154e-001
Second order smothness : 7.130178e-001
File 12 - If It Hadn't Been For Love - 95% MPEG [03:08.10]
Detected average hi-boundary frequency : 2.040024e+004 Hz
Detected average lo-boundary frequency : 1.712397e+004 Hz
Detected average hi-cut frequency : 2.061016e+004 Hz
Detected average lo-cut frequency : 1.833833e+004 Hz
Maximum probablis boundary frequency : 2.019000e+004 Hz
Coefficient of nonlinearity of a phase : 2.158410e-002
First order smothness : 6.188341e-001
Second order smothness : 6.367713e-001
File 13 - Hiding My Heart - 95% MPEG [03:26.28]
Detected average hi-boundary frequency : 2.019047e+004 Hz
Detected average lo-boundary frequency : 1.678691e+004 Hz
Detected average hi-cut frequency : 2.060799e+004 Hz
Detected average lo-cut frequency : 1.524733e+004 Hz
Maximum probablis boundary frequency : 2.036200e+004 Hz
Coefficient of nonlinearity of a phase : 4.135076e-002
First order smothness : 4.204082e-001
Second order smothness : 6.979592e-001
----- Summary: -----
These tracks looks like CDDA with probability 100%.
------------------------------------------------------------------------
ANALYZER:
auCDtect: CD records authenticity detector, version 0.8.2
Copyright (c) 2004 Oleg Berngardt. All rights reserved.
Copyright (c) 2004 Alexander Djourik. All rights reserved.
Time elapsed: 59.4 s
Log created at July 23, 2015 22:55:57
=== B6FAE0B1F32562D8E72D96B85041680BD18AE27B850128FE2382984CA1C150F7 ===
 
Japan & Singapore Deluxe Edition
CUE Corrector v.6.14.1 (build 516)
------------------------------------------------------------------------
Adele / 21
Folder: Japan & Singapore
audio files:
01 - Rolling in the Deep [03:49.22, FLAC, 44100Hz, Stereo, 16bit; 25,87 MB (27 123 225 bytes)]
02 - Rumour Has It [03:43.20, FLAC, 44100Hz, Stereo, 16bit; 24,69 MB (25 890 738 bytes)]
03 - Turning Tables [04:10.10, FLAC, 44100Hz, Stereo, 16bit; 23,52 MB (24 666 645 bytes)]
04 - Don't You Remember [04:03.15, FLAC, 44100Hz, Stereo, 16bit; 24,84 MB (26 048 083 bytes)]
05 - Set Fire to the Rain [04:01.52, FLAC, 44100Hz, Stereo, 16bit; 28,04 MB (29 402 934 bytes)]
06 - He Won't Go [04:37.71, FLAC, 44100Hz, Stereo, 16bit; 29,64 MB (31 084 693 bytes)]
07 - Take It All [03:48.16, FLAC, 44100Hz, Stereo, 16bit; 19,16 MB (20 091 882 bytes)]
08 - I'll Be Waiting [04:01.49, FLAC, 44100Hz, Stereo, 16bit; 28,94 MB (30 349 700 bytes)]
09 - One and Only [05:48.12, FLAC, 44100Hz, Stereo, 16bit; 36,35 MB (38 110 856 bytes)]
10 - Lovesong [05:16.21, FLAC, 44100Hz, Stereo, 16bit; 29,82 MB (31 268 092 bytes)]
11 - Someone Like You [04:55.29, FLAC, 44100Hz, Stereo, 16bit; 25,53 MB (26 769 687 bytes)]
12 - I Found a Bot (Bonus Track) [03:36.45, FLAC, 44100Hz, Stereo, 16bit; 16,50 MB (17 298 161 bytes)]
13 - Tuming Tables (Live Acoustic) [04:22.06, FLAC, 44100Hz, Stereo, 16bit; 20,83 MB (21 838 056 bytes)]
14 - Don't You Remember (Live Acoustic) [04:19.50, FLAC, 44100Hz, Stereo, 16bit; 21,41 MB (22 450 472 bytes)]
15 - Someone Like You (Live Acoustic) [05:16.32, FLAC, 44100Hz, Stereo, 16bit; 25,78 MB (27 031 048 bytes)]
Accuracy: -m8
File 01 - Rolling in the Deep - 100% CDDA [03:49.22]
Detected average hi-boundary frequency : 2.031515e+004 Hz
Detected average lo-boundary frequency : 1.414283e+004 Hz
Detected average hi-cut frequency : 2.181813e+004 Hz
Detected average lo-cut frequency : 1.096027e+004 Hz
Maximum probablis boundary frequency : 2.189100e+004 Hz
Coefficient of nonlinearity of a phase : 1.106253e+000
First order smothness : 4.322344e-001
Second order smothness : 5.970696e-001
File 02 - Rumour Has It - 100% CDDA [03:43.20]
Detected average hi-boundary frequency : 2.041854e+004 Hz
Detected average lo-boundary frequency : 1.441273e+004 Hz
Detected average hi-cut frequency : 2.169404e+004 Hz
Detected average lo-cut frequency : 9.737832e+003 Hz
Maximum probablis boundary frequency : 2.189100e+004 Hz
Coefficient of nonlinearity of a phase : 4.330445e-001
First order smothness : 4.075472e-001
Second order smothness : 5.622642e-001
File 03 - Turning Tables - 100% CDDA [04:10.10]
Detected average hi-boundary frequency : 2.042668e+004 Hz
Detected average lo-boundary frequency : 1.394746e+004 Hz
Detected average hi-cut frequency : 2.111716e+004 Hz
Detected average lo-cut frequency : 1.110811e+004 Hz
Maximum probablis boundary frequency : 2.189600e+004 Hz
Coefficient of nonlinearity of a phase : 1.849884e-001
First order smothness : 3.624161e-001
Second order smothness : 7.114094e-001
File 04 - Don't You Remember - 99% CDDA [04:03.15]
Detected average hi-boundary frequency : 2.027301e+004 Hz
Detected average lo-boundary frequency : 1.416914e+004 Hz
Detected average hi-cut frequency : 2.165941e+004 Hz
Detected average lo-cut frequency : 1.247969e+004 Hz
Maximum probablis boundary frequency : 2.189100e+004 Hz
Coefficient of nonlinearity of a phase : 1.840030e-001
First order smothness : 3.460208e-001
Second order smothness : 6.955017e-001
File 05 - Set Fire to the Rain - 100% CDDA [04:01.52]
Detected average hi-boundary frequency : 2.055500e+004 Hz
Detected average lo-boundary frequency : 1.433740e+004 Hz
Detected average hi-cut frequency : 2.152101e+004 Hz
Detected average lo-cut frequency : 1.202098e+004 Hz
Maximum probablis boundary frequency : 2.189100e+004 Hz
Coefficient of nonlinearity of a phase : 5.186284e-001
First order smothness : 3.728223e-001
Second order smothness : 6.341463e-001
File 06 - He Won't Go - 100% CDDA [04:37.71]
Detected average hi-boundary frequency : 2.041196e+004 Hz
Detected average lo-boundary frequency : 1.401340e+004 Hz
Detected average hi-cut frequency : 2.177250e+004 Hz
Detected average lo-cut frequency : 1.441061e+004 Hz
Maximum probablis boundary frequency : 2.189100e+004 Hz
Coefficient of nonlinearity of a phase : 2.499189e-001
First order smothness : 4.397590e-001
Second order smothness : 7.048193e-001
File 07 - Take It All - 100% CDDA [03:48.16]
Detected average hi-boundary frequency : 2.029587e+004 Hz
Detected average lo-boundary frequency : 1.427172e+004 Hz
Detected average hi-cut frequency : 2.079836e+004 Hz
Detected average lo-cut frequency : 9.611745e+003 Hz
Maximum probablis boundary frequency : 2.189100e+004 Hz
Coefficient of nonlinearity of a phase : 2.175272e-001
First order smothness : 3.941606e-001
Second order smothness : 6.715328e-001
File 08 - I'll Be Waiting - 100% CDDA [04:01.49]
Detected average hi-boundary frequency : 2.014114e+004 Hz
Detected average lo-boundary frequency : 1.411584e+004 Hz
Detected average hi-cut frequency : 2.176189e+004 Hz
Detected average lo-cut frequency : 1.018022e+004 Hz
Maximum probablis boundary frequency : 2.189600e+004 Hz
Coefficient of nonlinearity of a phase : 5.422585e-001
First order smothness : 3.519164e-001
Second order smothness : 5.888502e-001
File 09 - One and Only - 100% CDDA [05:48.12]
Detected average hi-boundary frequency : 2.030702e+004 Hz
Detected average lo-boundary frequency : 1.491329e+004 Hz
Detected average hi-cut frequency : 2.176855e+004 Hz
Detected average lo-cut frequency : 1.338395e+004 Hz
Maximum probablis boundary frequency : 2.189100e+004 Hz
Coefficient of nonlinearity of a phase : 1.995347e-001
First order smothness : 3.879518e-001
Second order smothness : 6.626506e-001
File 10 - Lovesong - 100% CDDA [05:16.21]
Detected average hi-boundary frequency : 2.004573e+004 Hz
Detected average lo-boundary frequency : 1.400835e+004 Hz
Detected average hi-cut frequency : 2.170193e+004 Hz
Detected average lo-cut frequency : 1.213989e+004 Hz
Maximum probablis boundary frequency : 2.189600e+004 Hz
Coefficient of nonlinearity of a phase : 6.293567e-001
First order smothness : 4.509284e-001
Second order smothness : 6.286472e-001
File 11 - Someone Like You - 100% CDDA [04:55.29]
Detected average hi-boundary frequency : 2.038572e+004 Hz
Detected average lo-boundary frequency : 1.326465e+004 Hz
Detected average hi-cut frequency : 2.141422e+004 Hz
Detected average lo-cut frequency : 1.147774e+004 Hz
Maximum probablis boundary frequency : 2.189100e+004 Hz
Coefficient of nonlinearity of a phase : 1.974167e-001
First order smothness : 4.500000e-001
Second order smothness : 6.647059e-001
File 12 - I Found a Bot (Bonus Track) - 100% CDDA [03:36.45]
Detected average hi-boundary frequency : 2.025395e+004 Hz
Detected average lo-boundary frequency : 1.322186e+004 Hz
Detected average hi-cut frequency : 2.089707e+004 Hz
Detected average lo-cut frequency : 8.815899e+003 Hz
Maximum probablis boundary frequency : 2.189100e+004 Hz
Coefficient of nonlinearity of a phase : 1.873952e-001
First order smothness : 3.281853e-001
Second order smothness : 7.297297e-001
File 13 - Tuming Tables (Live Acoustic) - 100% CDDA [04:22.06]
Detected average hi-boundary frequency : 2.046566e+004 Hz
Detected average lo-boundary frequency : 1.464249e+004 Hz
Detected average hi-cut frequency : 2.087978e+004 Hz
Detected average lo-cut frequency : 1.018634e+004 Hz
Maximum probablis boundary frequency : 2.178900e+004 Hz
Coefficient of nonlinearity of a phase : 1.281003e-001
First order smothness : 4.612903e-001
Second order smothness : 6.258065e-001
File 14 - Don't You Remember (Live Acoustic) - 100% CDDA [04:19.50]
Detected average hi-boundary frequency : 2.055105e+004 Hz
Detected average lo-boundary frequency : 1.504976e+004 Hz
Detected average hi-cut frequency : 2.133469e+004 Hz
Detected average lo-cut frequency : 1.185042e+004 Hz
Maximum probablis boundary frequency : 2.189100e+004 Hz
Coefficient of nonlinearity of a phase : 8.668743e-002
First order smothness : 4.512987e-001
Second order smothness : 6.493506e-001
File 15 - Someone Like You (Live Acoustic) - 100% CDDA [05:16.32]
Detected average hi-boundary frequency : 2.051883e+004 Hz
Detected average lo-boundary frequency : 1.538199e+004 Hz
Detected average hi-cut frequency : 2.117916e+004 Hz
Detected average lo-cut frequency : 1.044080e+004 Hz
Maximum probablis boundary frequency : 2.189100e+004 Hz
Coefficient of nonlinearity of a phase : 1.209867e-001
First order smothness : 4.058355e-001
Second order smothness : 6.312997e-001
----- Summary: -----
These tracks looks like CDDA with probability 100%.
------------------------------------------------------------------------
ANALYZER:
auCDtect: CD records authenticity detector, version 0.8.2
Copyright (c) 2004 Oleg Berngardt. All rights reserved.
Copyright (c) 2004 Alexander Djourik. All rights reserved.
Time elapsed: 1 m 11 s
Log created at July 23, 2015 23:10:17
=== A80C817DAAB3C2B7F0D5B5060F2395B2A0E591787C38011F8CEFFDB06EBDDAD4 ===
 
Target Deluxe Edition
CUE Corrector v.6.14.1 (build 516)
------------------------------------------------------------------------
--- / 21 (Target Bonus Disc)
Folder: Target Bonus Disc
audio files:
01 Need You Now (feat. Darius Rucker) (Live at CMT Artists of the Year Awards) [03:55.66, FLAC, 44100Hz, Stereo, 16bit; 26,40 MB (27 677 943 bytes)]
02 Someone Like You (Live Acoustic) [05:15.28, FLAC, 44100Hz, Stereo, 16bit; 25,71 MB (26 961 971 bytes)]
03 Turning Tables (Live Acoustic) [04:21.12, FLAC, 44100Hz, Stereo, 16bit; 20,77 MB (21 782 793 bytes)]
04 Don't You Remember (Live Acoustic) [04:18.10, FLAC, 44100Hz, Stereo, 16bit; 21,35 MB (22 383 917 bytes)]
Accuracy: -m8
File 01 Need You Now (feat. Darius Rucker) (Live at CMT Artists of the Year Awards) - 100% CDDA [03:55.66]
Detected average hi-boundary frequency : 2.082399e+004 Hz
Detected average lo-boundary frequency : 1.531116e+004 Hz
Detected average hi-cut frequency : 2.188120e+004 Hz
Detected average lo-cut frequency : 1.822862e+004 Hz
Maximum probablis boundary frequency : 2.189100e+004 Hz
Coefficient of nonlinearity of a phase : 5.938305e-001
First order smothness : 4.522968e-001
Second order smothness : 8.233216e-001
File 02 Someone Like You (Live Acoustic) - 100% CDDA [05:15.28]
Detected average hi-boundary frequency : 2.060384e+004 Hz
Detected average lo-boundary frequency : 1.545824e+004 Hz
Detected average hi-cut frequency : 2.125816e+004 Hz
Detected average lo-cut frequency : 1.048267e+004 Hz
Maximum probablis boundary frequency : 2.189100e+004 Hz
Coefficient of nonlinearity of a phase : 9.975175e-002
First order smothness : 4.403183e-001
Second order smothness : 6.180371e-001
File 03 Turning Tables (Live Acoustic) - 100% CDDA [04:21.12]
Detected average hi-boundary frequency : 2.042093e+004 Hz
Detected average lo-boundary frequency : 1.425901e+004 Hz
Detected average hi-cut frequency : 2.089035e+004 Hz
Detected average lo-cut frequency : 1.068281e+004 Hz
Maximum probablis boundary frequency : 2.167600e+004 Hz
Coefficient of nonlinearity of a phase : 9.141725e-002
First order smothness : 4.322581e-001
Second order smothness : 6.709677e-001
File 04 Don't You Remember (Live Acoustic) - 100% CDDA [04:18.10]
Detected average hi-boundary frequency : 2.037636e+004 Hz
Detected average lo-boundary frequency : 1.476153e+004 Hz
Detected average hi-cut frequency : 2.130339e+004 Hz
Detected average lo-cut frequency : 1.136686e+004 Hz
Maximum probablis boundary frequency : 2.189600e+004 Hz
Coefficient of nonlinearity of a phase : 1.085515e-001
First order smothness : 3.993506e-001
Second order smothness : 6.785714e-001
----- Summary: -----
These tracks looks like CDDA with probability 100%.
------------------------------------------------------------------------
ANALYZER:
auCDtect: CD records authenticity detector, version 0.8.2
Copyright (c) 2004 Oleg Berngardt. All rights reserved.
Copyright (c) 2004 Alexander Djourik. All rights reserved.
Time elapsed: 15.8 s
Log created at July 24, 2015 00:20:38
=== 3F7EDE10DCDAE08AA55B79C864806AB51E62A4775FF0AE07E433C08E102A469E ===
 
Скриншот спектра частот
 
Japan & Singapore Deluxe Edition
 
Target Deluxe Edition
Приватный:
Нет (DHT включён)
Размер:
1.07 Гб (1,153,550,579 байт) » файлов: 56
Участники:
0 раздают, 0 качают (0 участников всего)
Внешние участники:
34 раздают, 11 качают (45 участников всего) [ Обновить ]
Есть вопросы - пишите личное сообщение пользователю M0p94ok.
07:17
75
Нет комментариев. Ваш будет первым!