Поиск

(Soul-Jazz, Pop) [CD] Ego-Wrappin' And The Gossip Of Jaxx - 2009, FLAC (tracks+.cue), lossless

(Soul-Jazz, Pop) [CD] Ego-Wrappin' And The Gossip Of Jaxx - 2009, FLAC (tracks+.cue), lossless
EGO-WRAPPIN' And The Gossip Of Jaxx
Жанр: Soul-Jazz, Jazz-Rock, Pop
Носитель: CD
Страна-производитель диска: Japan
Год издания: 2009
Издатель (лейбл): VAP
Номер по каталогу: TFCC-86284
Страна: Japan
Аудиокодек: FLAC (*.flac)
Тип рипа: tracks+.cue
Битрейт аудио: lossless
Продолжительность: 57:16
Источник (релизер): найдено в сети
Наличие сканов в содержимом раздачи: нет
Треклист:
01 - Red Shadow
02 - Go Action
03 - Morning Star
04 - だるい (Darui)
05 - 雨のdubism (Ame no Dubism)
06 - 下弦の月 (Kagen no Tsuki)
07 - Million Starlight Hotel
08 - Whammy Kiss
09 - !楽団 (!Gakudan)
10 - 想像の美しい世界 (Souzou no Utsukushii Sekai)
11 - Dear Mama
 
Лог создания рипа
Exact Audio Copy V1.0 beta 3 from 29. August 2011
EAC extraction logfile from 20. October 2011, 16:50
EGO-WRAPPIN' AND THE GOSSIP OF JAXX / EGO-WRAPPIN' AND THE GOSSIP OF JAXX
Used drive : HL-DT-STDVD+-RW GH30N Adapter: 3 ID: 0
Read mode : Secure
Utilize accurate stream : Yes
Defeat audio cache : No
Make use of C2 pointers : No
Read offset correction : 102
Overread into Lead-In and Lead-Out : Yes
Fill up missing offset samples with silence : Yes
Delete leading and trailing silent blocks : No
Null samples used in CRC calculations : Yes
Used interface : Native Win32 interface for Win NT & 2000
Used output format : Internal WAV Routines
Sample format : 44.100 Hz; 16 Bit; Stereo
TOC of the extracted CD
Track | Start | Length | Start sector | End sector
---------------------------------------------------------
1 | 0:00.00 | 3:46.08 | 0 | 16957
2 | 3:46.08 | 4:11.08 | 16958 | 35790
3 | 7:57.16 | 5:53.26 | 35791 | 62291
4 | 13:50.42 | 4:47.36 | 62292 | 83852
5 | 18:38.03 | 6:09.16 | 83853 | 111543
6 | 24:47.19 | 5:58.71 | 111544 | 138464
7 | 30:46.15 | 6:26.44 | 138465 | 167458
8 | 37:12.59 | 4:16.30 | 167459 | 186688
9 | 41:29.14 | 4:57.34 | 186689 | 208997
10 | 46:26.48 | 5:06.63 | 208998 | 232010
11 | 51:33.36 | 5:42.60 | 232011 | 257720
Range status and errors
Selected range
Filename C:\EAC\EGO-WRAPPIN'\EGO-WRAPPIN' AND The GOSSIP OF JAXX [20090218] [TFCC-86284] EGO-WRAPPIN' AND The GOSSIP OF JAXX\EGO-WRAPPIN' AND THE GOSSIP OF JAXX - EGO-WRAPPIN' AND THE GOSSIP OF JAXX.wav
Peak level 100.0 %
Extraction speed 4.0 X
Range quality 100.0 %
Test CRC 0A1B4B46
Copy CRC 0A1B4B46
Copy OK
No errors occurred
AccurateRip summary
Track 1 accurately ripped (confidence 1) [AD22FF82] (AR v1)
Track 2 accurately ripped (confidence 1) [A58911D4] (AR v1)
Track 3 accurately ripped (confidence 1) [D275616D] (AR v1)
Track 4 accurately ripped (confidence 1) [2E5932A7] (AR v1)
Track 5 accurately ripped (confidence 1) [9A5BD974] (AR v1)
Track 6 accurately ripped (confidence 1) [4693C54B] (AR v1)
Track 7 accurately ripped (confidence 1) [4266F31E] (AR v1)
Track 8 accurately ripped (confidence 1) [39F29754] (AR v1)
Track 9 accurately ripped (confidence 1) [D1E9D895] (AR v1)
Track 10 accurately ripped (confidence 1) [EB06D6FE] (AR v1)
Track 11 accurately ripped (confidence 1) [3F6ED129] (AR v1)
All tracks accurately ripped
End of status report
---- CUETools DB Plugin V2.1.3
[CTDB TOCID: ffixGH8TQ0Wz9F3OtyVTkUZB6ik-] disk not present in database, Submit result: ffixGH8TQ0Wz9F3OtyVTkUZB6ik- has been uploaded
 
Содержание индексной карты (.CUE)
REM ACCURATERIPID 0016ea55-00c975b4-a30d6c0b
REM GENRE "Jazz"
REM DATE 2009
REM DISCID A30D6C0B
REM COMMENT "ExactAudioCopy v1.0b3"
CATALOG 4988061862842
PERFORMER "EGO-WRAPPIN' AND THE GOSSIP OF JAXX"
TITLE "EGO-WRAPPIN' AND THE GOSSIP OF JAXX"
FILE "01. RED SHADOW.flac" WAVE
TRACK 01 AUDIO
TITLE "RED SHADOW"
PERFORMER "EGO-WRAPPIN' AND THE GOSSIP OF JAXX"
ISRC JPTF00810201
INDEX 01 00:00:00
FILE "02. GO ACTION.flac" WAVE
TRACK 02 AUDIO
TITLE "GO ACTION"
PERFORMER "EGO-WRAPPIN' AND THE GOSSIP OF JAXX"
ISRC JPTF00803801
INDEX 01 00:00:00
FILE "03. morning star.flac" WAVE
TRACK 03 AUDIO
TITLE "morning star"
PERFORMER "EGO-WRAPPIN' AND THE GOSSIP OF JAXX"
ISRC JPTF00810202
INDEX 01 00:00:00
FILE "04. だるい.flac" WAVE
TRACK 04 AUDIO
TITLE "だるい"
PERFORMER "EGO-WRAPPIN' AND THE GOSSIP OF JAXX"
ISRC JPTF00810203
INDEX 01 00:00:00
FILE "05. 雨のdubism.flac" WAVE
TRACK 05 AUDIO
TITLE "雨のdubism"
PERFORMER "EGO-WRAPPIN' AND THE GOSSIP OF JAXX"
ISRC JPTF00810204
INDEX 01 00:00:00
FILE "06. 下弦の月.flac" WAVE
TRACK 06 AUDIO
TITLE "下弦の月"
PERFORMER "EGO-WRAPPIN' AND THE GOSSIP OF JAXX"
ISRC JPTF00810205
INDEX 01 00:00:00
FILE "07. million starlight hotel.flac" WAVE
TRACK 07 AUDIO
TITLE "million starlight hotel"
PERFORMER "EGO-WRAPPIN' AND THE GOSSIP OF JAXX"
ISRC JPTF00810206
INDEX 01 00:00:00
FILE "08. Whammy Kiss.flac" WAVE
TRACK 08 AUDIO
TITLE "Whammy Kiss"
PERFORMER "EGO-WRAPPIN' AND THE GOSSIP OF JAXX"
ISRC JPTF00810207
INDEX 01 00:00:00
FILE "09. !楽団.flac" WAVE
TRACK 09 AUDIO
TITLE "!楽団"
PERFORMER "EGO-WRAPPIN' AND THE GOSSIP OF JAXX"
ISRC JPTF00810208
INDEX 01 00:00:00
FILE "10. 想像の美しい世界.flac" WAVE
TRACK 10 AUDIO
TITLE "想像の美しい世界"
PERFORMER "EGO-WRAPPIN' AND THE GOSSIP OF JAXX"
ISRC JPTF00810209
INDEX 01 00:00:00
FILE "11. Dear mama.flac" WAVE
TRACK 11 AUDIO
TITLE "Dear mama"
PERFORMER "EGO-WRAPPIN' AND THE GOSSIP OF JAXX"
ISRC JPTF00810210
INDEX 01 00:00:00
16:19
326
Нет комментариев. Ваш будет первым!