Поиск

(MPB, Bossa Nova) [CD] Toquinho - A Bossa Do Toquinho (Remastered 2006) - 1966, FLAC (tracks+.cue), lossless

(MPB, Bossa Nova) [CD] Toquinho - A Bossa Do Toquinho (Remastered 2006) - 1966, FLAC (tracks+.cue), lossless
Треклист:
TOQUINHOA Bossa Do Toquinho
Жанр: MPB, Bossa Nova
Носитель: CD
Страна-производитель диска: Brazil
Год издания: 1966 (2006)
Издатель (лейбл): Som Livre
Номер по каталогу: 0485-2
Страна: Brazil
Аудиокодек: FLAC (*.flac)
Тип рипа: tracks+.cue
Битрейт аудио: lossless
Продолжительность: 00:34:33
Релизер: Caloriana
Наличие сканов: да

 
Треклист

01. Pot-Pourri (Marcha da 4a Feira/Sonho de um Carnaval) (3:46)
02. Triste amor que vai morrer (2:17)
03. Deixa (3:34)
04. Réquiem para um amor (2:48)
05. Zambi (3:45)
06. Valsa de Eurídíce (2:22)
07. Antes e Depois (2:51)
08. Canto de Ossanha (2:03)
09. Pequeno concerto que virou canção (2:59)
10. Allemande (2:18)
11. Dá-me (3:12)
12. Olê, Olá (2:40)
 
Логи
 
EAC
Exact Audio Copy V1.0 beta 3 from 29. August 2011
EAC extraction logfile from 1. May 2014, 14:40
Toquinho / A Bossa do Toquinho
Used drive : ASUS DRW-24B1ST a Adapter: 7 ID: 0
Read mode : Secure
Utilize accurate stream : Yes
Defeat audio cache : Yes
Make use of C2 pointers : No
Read offset correction : 6
Overread into Lead-In and Lead-Out : No
Fill up missing offset samples with silence : Yes
Delete leading and trailing silent blocks : No
Null samples used in CRC calculations : Yes
Used interface : Native Win32 interface for Win NT & 2000
Gap handling : Appended to previous track
Used output format : User Defined Encoder
Selected bitrate : 768 kBit/s
Quality : High
Add ID3 tag : No
Command line compressor : C:\Program Files (x86)\Exact Audio Copy\FLAC\FLAC.EXE
Additional command line options : -8 -V -T "ARTIST=%artist%" -T "TITLE=%title%" -T "ALBUM=%albumtitle%" -T "DATE=%year%" -T "TRACKNUMBER=%tracknr%" -T "TOTALTRACKS=%numtracks%" -T "GENRE=%genre%" -T "ALBUMARTIST=%albumartist%" -T "ALBUM ARTIST=%albumartist%" -T "COMMENT=EAC Secure Mode, Test & Copy, AccurateRip, FLAC -8" %source%
TOC of the extracted CD
Track | Start | Length | Start sector | End sector
---------------------------------------------------------
1 | 0:00.00 | 3:45.42 | 0 | 16916
2 | 3:45.42 | 2:17.30 | 16917 | 27221
3 | 6:02.72 | 3:33.65 | 27222 | 43261
4 | 9:36.62 | 2:48.25 | 43262 | 55886
5 | 12:25.12 | 3:44.45 | 55887 | 72731
6 | 16:09.57 | 2:21.48 | 72732 | 83354
7 | 18:31.30 | 2:51.10 | 83355 | 96189
8 | 21:22.40 | 2:02.57 | 96190 | 105396
9 | 23:25.22 | 2:58.53 | 105397 | 118799
10 | 26:24.00 | 2:17.40 | 118800 | 129114
11 | 28:41.40 | 3:12.17 | 129115 | 143531
12 | 31:53.57 | 2:39.42 | 143532 | 155498
Track 1
Filename H:\01 - Pot-Pourri (Marcha da Quarta-Feira, Sonho de um Carnaval).wav
Pre-gap length 0:00:02.00
Peak level 99.9 %
Extraction speed 3.4 X
Track quality 100.0 %
Test CRC CCCE2D2C
Copy CRC CCCE2D2C
Accurately ripped (confidence 1) [161F959B] (AR v2)
Copy OK
Track 2
Filename H:\02 - Triste amor que vai morrer.wav
Peak level 99.9 %
Extraction speed 3.4 X
Track quality 100.0 %
Test CRC 1AEF7779
Copy CRC 1AEF7779
Accurately ripped (confidence 1) [5CB21772] (AR v2)
Copy OK
Track 3
Filename H:\03 - Deixa.wav
Peak level 100.0 %
Extraction speed 3.9 X
Track quality 100.0 %
Test CRC 3EFDA9EE
Copy CRC 3EFDA9EE
Accurately ripped (confidence 1) [D2F6B8D8] (AR v2)
Copy OK
Track 4
Filename H:\04 - Requiem para um amor.wav
Peak level 100.0 %
Extraction speed 3.0 X
Track quality 99.9 %
Test CRC DDC125BF
Copy CRC DDC125BF
Accurately ripped (confidence 1) [C0526332] (AR v2)
Copy OK
Track 5
Filename H:\05 - Zambi.wav
Peak level 99.9 %
Extraction speed 4.5 X
Track quality 100.0 %
Test CRC 001DDA9A
Copy CRC 001DDA9A
Accurately ripped (confidence 1) [86BA3C39] (AR v2)
Copy OK
Track 6
Filename H:\06 - Valsa de Euridice.wav
Peak level 99.9 %
Extraction speed 4.3 X
Track quality 100.0 %
Test CRC 391AA253
Copy CRC 391AA253
Accurately ripped (confidence 1) [154B0639] (AR v2)
Copy OK
Track 7
Filename H:\07 - Antes e Depois.wav
Peak level 100.0 %
Extraction speed 4.7 X
Track quality 100.0 %
Test CRC C629B820
Copy CRC C629B820
Accurately ripped (confidence 1) [03488C33] (AR v2)
Copy OK
Track 8
Filename H:\08 - Canto de Ossanha.wav
Peak level 99.9 %
Extraction speed 4.4 X
Track quality 100.0 %
Test CRC 07BA010D
Copy CRC 07BA010D
Accurately ripped (confidence 1) [4EC7A38A] (AR v2)
Copy OK
Track 9
Filename H:\09 - Pequeno concerto que virou cancao.wav
Peak level 99.9 %
Extraction speed 5.0 X
Track quality 100.0 %
Test CRC EB61560F
Copy CRC EB61560F
Accurately ripped (confidence 1) [870C3C03] (AR v2)
Copy OK
Track 10
Filename H:\10 - Allemande.wav
Peak level 99.9 %
Extraction speed 4.8 X
Track quality 100.0 %
Test CRC D223D296
Copy CRC D223D296
Accurately ripped (confidence 1) [C8BAA0B5] (AR v2)
Copy OK
Track 11
Filename H:\11 - Da-me.wav
Peak level 99.9 %
Extraction speed 4.1 X
Track quality 99.9 %
Test CRC B1BDF762
Copy CRC B1BDF762
Accurately ripped (confidence 1) [96C4B39C] (AR v2)
Copy OK
Track 12
Filename H:\12 - Ole, Ola.wav
Peak level 99.9 %
Extraction speed 5.4 X
Track quality 100.0 %
Test CRC CCF57C9D
Copy CRC CCF57C9D
Accurately ripped (confidence 1) [633C4398] (AR v2)
Copy OK
All tracks accurately ripped
No errors occurred
End of status report
==== Log checksum B7EF60542D77D89FF0F2A3D481C097C5963F2AD8551A0A93DC876643ED8274C7 ====
 
Индексная карта (.CUE)
REM GENRE "Bossa Nova"
REM DATE 2006
REM DISCID A308190C
REM COMMENT "ExactAudioCopy v1.0b3"
PERFORMER "Toquinho"
TITLE "A Bossa do Toquinho"
FILE "01. Pot-Pourri (Marcha da 4a FeiraSonho de um Carnaval).wav" WAVE
TRACK 01 AUDIO
TITLE "Pot-Pourri (Marcha da 4Є Feira - Sonho de um Carnaval)"
PERFORMER "Toquinho"
INDEX 01 00:00:00
FILE "02. Triste amor que vai morrer.wav" WAVE
TRACK 02 AUDIO
TITLE "Triste amor que vai morrer"
PERFORMER "Toquinho"
INDEX 01 00:00:00
FILE "03. Deixa.wav" WAVE
TRACK 03 AUDIO
TITLE "Deixa"
PERFORMER "Toquinho"
INDEX 01 00:00:00
FILE "04. Requiem para um amor.wav" WAVE
TRACK 04 AUDIO
TITLE "Réquiem para um amor"
PERFORMER "Toquinho"
INDEX 01 00:00:00
FILE "05. Zambi.wav" WAVE
TRACK 05 AUDIO
TITLE "Zambi"
PERFORMER "Toquinho"
INDEX 01 00:00:00
FILE "06. Valsa de Euridice.wav" WAVE
TRACK 06 AUDIO
TITLE "Valsa de Eurídíce"
PERFORMER "Toquinho"
INDEX 01 00:00:00
FILE "07. Antes e Depois.wav" WAVE
TRACK 07 AUDIO
TITLE "Antes e Depois"
PERFORMER "Toquinho"
INDEX 01 00:00:00
FILE "08. Canto de Ossanha.wav" WAVE
TRACK 08 AUDIO
TITLE "Canto de Ossanha"
PERFORMER "Toquinho"
INDEX 01 00:00:00
FILE "09. Pequeno concerto que virou cancao.wav" WAVE
TRACK 09 AUDIO
TITLE "Pequeno concerto que virou canção"
PERFORMER "Toquinho"
INDEX 01 00:00:00
FILE "10. Allemande.wav" WAVE
TRACK 10 AUDIO
TITLE "Allemande"
PERFORMER "Toquinho"
INDEX 01 00:00:00
FILE "11. Da-me.wav" WAVE
TRACK 11 AUDIO
TITLE "Dá-me"
PERFORMER "Toquinho"
INDEX 01 00:00:00
FILE "12. Ole, Ola.wav" WAVE
TRACK 12 AUDIO
TITLE "Olê, Olá"
PERFORMER "Toquinho"
INDEX 01 00:00:00
 
Отчёт Folder.auCDtect
-----------------------
DON'T MODIFY THIS FILE
-----------------------
PERFORMER: auCDtect Task Manager, ver. 1.6.0 RC1 build 1.6.0.1
Copyright (c) 2008-2010 y-soft. All rights reserved
http://y-soft.org
ANALYZER: auCDtect: CD records authenticity detector, version 0.8.2
Copyright (c) 2004 Oleg Berngardt. All rights reserved.
Copyright (c) 2004 Alexander Djourik. All rights reserved.
FILE: 12. Olê, Olá.flac
Size: 12800321 Hash: E2DFA5CF9423AF1BA6B0FB91291B83D0 Accuracy: -m0
Conclusion: CDDA 100%
Signature: AF2DE698A9D820ECC0A2A84231F044798D7E25C3
FILE: 11. Dá-me.flac
Size: 15263026 Hash: CE235959BA9062EBF1CE13CEB7D3C056 Accuracy: -m0
Conclusion: CDDA 100%
Signature: A6750A27B519D0018F02DB37320539894AEF96D3
FILE: 10. Allemande.flac
Size: 11564897 Hash: 454AEBDB58D1AA329CFEC3F44EFDECC2 Accuracy: -m0
Conclusion: CDDA 99%
Signature: ADF71F2FB428929BAC9F23D9FACC08FDE76248F7
FILE: 09. Pequeno concerto que virou canção.flac
Size: 14422253 Hash: 660CB5E97904A8A0356EC40AFBAA8803 Accuracy: -m0
Conclusion: CDDA 100%
Signature: BB4A08E34C77C8C277E0BA94EB6273D41C7B8083
FILE: 08. Canto de Ossanha.flac
Size: 9896665 Hash: 7BE72B7C443D5535F8C8D04CEE6767C0 Accuracy: -m0
Conclusion: CDDA 100%
Signature: C8A9644AF26AC4441C22F82DD0248E3D316F1EE8
FILE: 07. Antes e Depois.flac
Size: 12954304 Hash: F5695E82CE47962136840C6771584B8A Accuracy: -m0
Conclusion: CDDA 100%
Signature: A2C9D0F27ABC6EEDFC52A858FAE02F54A3EB117D
FILE: 06. Valsa de Eurídíce.flac
Size: 9814547 Hash: F3335775740D6CEC637F1AAE5F63D706 Accuracy: -m0
Conclusion: CDDA 100%
Signature: 21B798FD665F90948DD43098266DD7AEAD3DD0C9
FILE: 05. Zambi.flac
Size: 20143017 Hash: 98D693941AF079F77FB95D1A7CD6A6D9 Accuracy: -m0
Conclusion: CDDA 100%
Signature: 9B5961B1A4876E1781F566CBD81CE1DF256CDADD
FILE: 04. Réquiem para um amor.flac
Size: 13507059 Hash: A3CF795F05150D5203B03F4844EE1003 Accuracy: -m0
Conclusion: CDDA 100%
Signature: CE172453CCDA0B443D114CA11A840F423089F593
FILE: 03. Deixa.flac
Size: 20416429 Hash: 751832A20789B7F2F7B40A0EA246D196 Accuracy: -m0
Conclusion: CDDA 100%
Signature: B119A766EBD467B4E78DF88F54D5FA7E2FD7AB7B
FILE: 02. Triste amor que vai morrer.flac
Size: 11055945 Hash: 3705E857ABEE570CC616999FDB05B472 Accuracy: -m0
Conclusion: CDDA 100%
Signature: C7AF096C97CC37AECA7846545BD1715F356C8903
FILE: 01. Pot-Pourri (Marcha da 4a FeiraSonho de um Carnaval).flac
Size: 21991718 Hash: 210D93176F152225D795DDE79B5D563C Accuracy: -m0
Conclusion: CDDA 100%
Signature: AA9E25011DB4D53F4E6A72BB272093B57C46B133
 
Ознакомление
 
Доп. информация
Релиз полностью готов к воспроизведению в аудиоплеере (я ориентировался на foobar2000)При скачивании, если необходимо, переименуйте папку, в которой будет находиться альбомБольшая просьба к скачавшим поддерживать раздачу! Помогайте другим, ведь вам тоже может понадобиться помощь!Не забываем говорить "Спасибо"!Комментарии приветствуются!
15:20
313
Нет комментариев. Ваш будет первым!