Поиск

(Soul Jazz, Latin Jazz, World Fusion) [CD] Dave Pike - Jazz For The Jet Set (1965) - 2001, FLAC (tracks+.cue), lossless

(Soul Jazz, Latin Jazz, World Fusion) [CD] Dave Pike - Jazz For The Jet Set (1965) - 2001, FLAC (tracks+.cue), lossless
Треклист:
Dave Pike - Jazz For The Jet Set (1965) Жанр: Soul Jazz, Latin Jazz, World Fusion
Носитель: CD
Год издания: 2001
Издатель (лейбл): Atlantic/Warner Jazz
Номер по каталогу: 8122-73527-2
Аудиокодек: FLAC (*.flac)
Тип рипа: tracks+.cue
Битрейт аудио: lossless
Продолжительность: 37:55
Источник (релизер): ruskaval
Наличие сканов в содержимом раздачи: да
Треклист:
01. Blind Man Blind Man (6:54)
02. Jet Set (5:51)
03. Sunny (3:21)
04. When I'm Gone (3:06)
05. You've Got Your Troubles (4:10)
06. Sweet Tater Pie (3:51)
07. Just Say Goodbye (4:37)
08. Devilette (6:05)
Personnel:
Dave Pike - mba
Clark Terry, Marty Sheller (1, 5, 7, 8), Melvin Lastie (2-4, 6) - tp
Herbie Hancock - org
Billy Butler - g
Bob Cranshaw (1, 5, 7, 8), Jimmy Lewis (2-4, 6) - b
Bruno Carr (1, 5, 7, 8), Grady Tate (2-4, 6) - d
Rec.: New York City, NY, October 26 (#1, 5, 7, 8) and November 2 (#2-4, 6), 1965.
 
 
Лог создания рипа
Exact Audio Copy V0.99 prebeta 5 from 4. May 2009
EAC extraction logfile from 3. June 2010, 17:16
Dave Pike / Jazz For The Jet Set
Used drive : TSSTcorpCDDVDW SH-S203N Adapter: 0 ID: 2
Read mode : Secure
Utilize accurate stream : Yes
Defeat audio cache : Yes
Make use of C2 pointers : No
Read offset correction : 6
Overread into Lead-In and Lead-Out : No
Fill up missing offset samples with silence : Yes
Delete leading and trailing silent blocks : No
Null samples used in CRC calculations : Yes
Used interface : Installed external ASPI interface
Gap handling : Appended to previous track
Used output format : User Defined Encoder
Selected bitrate : 768 kBit/s
Quality : High
Add ID3 tag : No
Command line compressor : C:\Program Files\Exact Audio Copy\Flac\flac.exe
Additional command line options : -8 -V -T "ARTIST=%a" -T "TITLE=%t" -T "ALBUM=%g" -T "DATE=%y" -T "TRACKNUMBER=%n" -T "TOTALTRACKS=%x" -T "GENRE=%m" -T "ALBUMARTIST=%v" -T "ALBUM ARTIST=%v" -T "COMMENT=EAC V0.99 pb5, Secure Mode, Test & Copy, AccurateRip,
TOC of the extracted CD
Track | Start | Length | Start sector | End sector
---------------------------------------------------------
1 | 0:00.00 | 6:53.67 | 0 | 31041
2 | 6:53.67 | 5:50.68 | 31042 | 57359
3 | 12:44.60 | 3:21.30 | 57360 | 72464
4 | 16:06.15 | 3:05.70 | 72465 | 86409
5 | 19:12.10 | 4:09.62 | 86410 | 105146
6 | 23:21.72 | 3:51.25 | 105147 | 122496
7 | 27:13.22 | 4:37.08 | 122497 | 143279
8 | 31:50.30 | 6:05.05 | 143280 | 170659
Track 1
Filename J:\New Rips\Dave Pike - Jazz For The Jet Set (2001) [FLAC] {Warner Jazz 8122-73527-2 rec 1965 w Herbie Hancock}\01 - Blind Man Blind Man.wav
Pre-gap length 0:00:02.00
Peak level 100.0 %
Track quality 100.0 %
Test CRC 28F73BC2
Copy CRC 28F73BC2
Accurately ripped (confidence 8) [2DB31B33]
Copy OK
Track 2
Filename J:\New Rips\Dave Pike - Jazz For The Jet Set (2001) [FLAC] {Warner Jazz 8122-73527-2 rec 1965 w Herbie Hancock}\02 - Jet Set.wav
Pre-gap length 0:00:02.36
Peak level 77.4 %
Track quality 100.0 %
Test CRC A15B07E5
Copy CRC A15B07E5
Accurately ripped (confidence 8) [82FF7E21]
Copy OK
Track 3
Filename J:\New Rips\Dave Pike - Jazz For The Jet Set (2001) [FLAC] {Warner Jazz 8122-73527-2 rec 1965 w Herbie Hancock}\03 - Sunny.wav
Pre-gap length 0:00:02.04
Peak level 69.7 %
Track quality 100.0 %
Test CRC 74D635DE
Copy CRC 74D635DE
Accurately ripped (confidence 8) [671028CC]
Copy OK
Track 4
Filename J:\New Rips\Dave Pike - Jazz For The Jet Set (2001) [FLAC] {Warner Jazz 8122-73527-2 rec 1965 w Herbie Hancock}\04 - When I'm Gone.wav
Pre-gap length 0:00:02.13
Peak level 73.3 %
Track quality 99.9 %
Test CRC C1DDCA68
Copy CRC C1DDCA68
Accurately ripped (confidence 8) [87C3D9F8]
Copy OK
Track 5
Filename J:\New Rips\Dave Pike - Jazz For The Jet Set (2001) [FLAC] {Warner Jazz 8122-73527-2 rec 1965 w Herbie Hancock}\05 - You've Got Your Troubles.wav
Pre-gap length 0:00:08.24
Peak level 69.9 %
Track quality 100.0 %
Test CRC 3EB14D03
Copy CRC 3EB14D03
Accurately ripped (confidence 8) [D59FD0F9]
Copy OK
Track 6
Filename J:\New Rips\Dave Pike - Jazz For The Jet Set (2001) [FLAC] {Warner Jazz 8122-73527-2 rec 1965 w Herbie Hancock}\06 - Sweet Tater Pie.wav
Pre-gap length 0:00:02.09
Peak level 93.9 %
Track quality 100.0 %
Test CRC 65B8DF04
Copy CRC 65B8DF04
Accurately ripped (confidence 8) [956EB522]
Copy OK
Track 7
Filename J:\New Rips\Dave Pike - Jazz For The Jet Set (2001) [FLAC] {Warner Jazz 8122-73527-2 rec 1965 w Herbie Hancock}\07 - Just Say Goodbye.wav
Pre-gap length 0:00:02.09
Peak level 93.7 %
Track quality 100.0 %
Test CRC AE88FCC6
Copy CRC AE88FCC6
Accurately ripped (confidence 8) [18D81471]
Copy OK
Track 8
Filename J:\New Rips\Dave Pike - Jazz For The Jet Set (2001) [FLAC] {Warner Jazz 8122-73527-2 rec 1965 w Herbie Hancock}\08 - Devilette.wav
Pre-gap length 0:00:02.00
Peak level 90.2 %
Track quality 100.0 %
Test CRC 4602726A
Copy CRC 4602726A
Accurately ripped (confidence 8) [F946B590]
Copy OK
All tracks accurately ripped
No errors occurred
End of status report
 
Содержание индексной карты (.CUE)
REM GENRE Jazz
REM DATE 2001
REM DISCID 6508E308
REM COMMENT "ExactAudioCopy v0.99pb5"
PERFORMER "Dave Pike"
TITLE "Jazz For The Jet Set"
FILE "01 - Blind Man Blind Man.wav" WAVE
TRACK 01 AUDIO
TITLE "Blind Man Blind Man"
PERFORMER "Dave Pike"
INDEX 01 00:00:00
TRACK 02 AUDIO
TITLE "Jet Set"
PERFORMER "Dave Pike"
INDEX 00 06:51:40
FILE "02 - Jet Set.wav" WAVE
INDEX 01 00:00:00
TRACK 03 AUDIO
TITLE "Sunny"
PERFORMER "Dave Pike"
INDEX 00 05:48:65
FILE "03 - Sunny.wav" WAVE
INDEX 01 00:00:00
TRACK 04 AUDIO
TITLE "When I'm Gone"
PERFORMER "Dave Pike"
INDEX 00 03:19:20
FILE "04 - When I'm Gone.wav" WAVE
INDEX 01 00:00:00
TRACK 05 AUDIO
TITLE "You've Got Your Troubles"
PERFORMER "Dave Pike"
INDEX 00 02:57:52
FILE "05 - You've Got Your Troubles.wav" WAVE
INDEX 01 00:00:00
TRACK 06 AUDIO
TITLE "Sweet Tater Pie"
PERFORMER "Dave Pike"
INDEX 00 04:07:55
FILE "06 - Sweet Tater Pie.wav" WAVE
INDEX 01 00:00:00
TRACK 07 AUDIO
TITLE "Just Say Goodbye"
PERFORMER "Dave Pike"
INDEX 00 03:49:18
FILE "07 - Just Say Goodbye.wav" WAVE
INDEX 01 00:00:00
TRACK 08 AUDIO
TITLE "Devilette"
PERFORMER "Dave Pike"
INDEX 00 04:35:08
FILE "08 - Devilette.wav" WAVE
INDEX 01 00:00:00
 
Об альбоме (сборнике)
This disc is a bit unusual in a few ways. Vibraphonist Dave Pike sticks here exclusively to the marimba, while pianist Herbie Hancock is heard throughout on organ, an instrument he rarely played again. The band also includes two trumpeters (most notably Clark Terry who has a few short solos) and a rhythm section with guitarist Billy Butler. Most of the music consists of obscurities and is open to the influences of the boogaloo and pop rhythms of the era; highlights include Hancock's "Blind Man, Blind Man," "Sunny" and "Devilette." An interesting effort.
A classic little album that's every bit as groovy as its cover – served up by vibist Dave Pike, and one of the first true expressions of his talents! The set's a standout early American date that predates Pike's later experiments for MPS – done in a great blend of soul jazz and some tighter Atlantic Records influences – all served up by a hip group of players that includes Billy Butler on guitar, Clark Terry and Marty Sheller on trumpets, and Grady Tate on drums – plus Herbie Hancock making a rare appearance on organ! There's a great little bounce to most numbers – not really funk, but a blend of soul instrumental and more contemporary jazz styles – in a way that takes a Blue Note groove more towards the jukebox audience. Titles include "When I'm Gone", "Devilette", "Sweet Tater Pie", "Blind Man Blind Man", and "Sunny".
22:27
269
Нет комментариев. Ваш будет первым!