Поиск

(Latin Jazz, Post-Bop) [CD] Michel Camilo - Michel Camilo - 1988, FLAC (tracks+.cue), lossless

(Latin Jazz, Post-Bop) [CD] Michel Camilo - Michel Camilo - 1988, FLAC (tracks+.cue), lossless
Треклист:
Michel Camilo - Michel Camilo
Жанр: Latin Jazz, Post-Bop
Носитель: CD
Страна-производитель диска (релиза): США
Год издания: 1988
Издатель (лейбл): Portrait
Номер по каталогу: RK 44482
Аудиокодек: FLAC (*.flac)
Тип рипа: tracks+.cue
Битрейт аудио: lossless
Продолжительность: 44:19
Источник (релизер): Vilens40 (what)
Наличие сканов в содержимом раздачи: сетевые
Треклист:
01. Suite Sandrine Part I (Camilo) - 6:13
02. Nostalgia (Camilo) - 4:14
03. Dreamlight (Camilo) - 5:21
04. Crossroads (Camilo) - 4:34
05. Sunset (Interlude/Suite Sandrine) (Camilo) - 3:14
06. Yarey (Camilo) - 4:27
07. Pra Voce (For Tania Maria) (Camilo) - 4:26
08. Blue Bossa (Dorham) - 3:53
09. Caribe (Camilo) - 7:57
Состав:
Michel Camilo - piano
Marc Johnson (#1-4), Lincoln Goines (#6,7,9) - bass
Dave Weckl (#1-4), Joel Rosenblatt (#6,7,9) - drums
Mongo Santamaria - congas
Recorded at Clinton Studios, New York on January 30 - February 1, 1988.
 
Лог создания рипа
X Lossless Decoder version 20100503 (119.0)
XLD extraction logfile from 2010-05-04 22:12:06 -0400
Michel Camilo / Michel Camilo
Used drive : MATSHITA DVD-R UJ-857E (revision ZF1E)
Use cdparanoia mode : YES (CDParanoia III 10.2 engine)
Disable audio cache : OK for the drive with cache less than 2750KB
Make use of C2 pointers : NO
Read offset correction : 102
Max retry count : 100
TOC of the extracted CD
Track | Start | Length | Start sector | End sector
---------------------------------------------------------
1 | 00:00:00 | 06:13:17 | 0 | 27991
2 | 06:13:17 | 04:14:05 | 27992 | 47046
3 | 10:27:22 | 05:20:48 | 47047 | 71094
4 | 15:47:70 | 04:33:52 | 71095 | 91621
5 | 20:21:47 | 03:14:03 | 91622 | 106174
6 | 23:35:50 | 04:27:22 | 106175 | 126221
7 | 28:02:72 | 04:26:30 | 126222 | 146201
8 | 32:29:27 | 03:53:33 | 146202 | 163709
9 | 36:22:60 | 07:56:45 | 163710 | 199454
List of alternate offset correction values
# | Absolute | Relative | Confidence
------------------------------------------
1 | 198 | 96 | 13
2 | -562 | -664 | 2
All Tracks
Album gain : 0.48 dB
Peak : 0.891205
Track 01
Filename : /Volumes/MADLIB/01 Michel Camilo - Suite Sandrine Part I.flac
Pre-gap length : 00:02:00
Track gain : 0.59 dB
Peak : 0.891205
CRC32 hash (test run) : E80C0186
CRC32 hash : E80C0186
CRC32 hash (skip zero) : E65C98E9
AccurateRip signature : D5C73321
->Accurately ripped! (confidence 2)
Statistics
Read error : 0
Skipped (treated as error) : 0
Edge jitter error (maybe fixed) : 0
Atom jitter error (maybe fixed) : 0
Drift error (maybe fixed) : 0
Dropped bytes error (maybe fixed) : 0
Duplicated bytes error (maybe fixed) : 0
Inconsistency in error sectors : 0
Track 02
Filename : /Volumes/MADLIB/02 Michel Camilo - Nostalgia.flac
Pre-gap length : 00:01:50
Track gain : 4.66 dB
Peak : 0.784790
CRC32 hash (test run) : 44052C42
CRC32 hash : 44052C42
CRC32 hash (skip zero) : DB99DAAF
AccurateRip signature : 26E02E92
->Accurately ripped! (confidence 2)
Statistics
Read error : 0
Skipped (treated as error) : 0
Edge jitter error (maybe fixed) : 0
Atom jitter error (maybe fixed) : 0
Drift error (maybe fixed) : 0
Dropped bytes error (maybe fixed) : 0
Duplicated bytes error (maybe fixed) : 0
Inconsistency in error sectors : 0
Track 03
Filename : /Volumes/MADLIB/03 Michel Camilo - Dreamlight.flac
Pre-gap length : 00:00:32
Track gain : 0.04 dB
Peak : 0.891205
CRC32 hash (test run) : 3BD12B19
CRC32 hash : 3BD12B19
CRC32 hash (skip zero) : F33E9D48
AccurateRip signature : 0DB8B246
->Accurately ripped! (confidence 2)
Statistics
Read error : 0
Skipped (treated as error) : 0
Edge jitter error (maybe fixed) : 0
Atom jitter error (maybe fixed) : 0
Drift error (maybe fixed) : 0
Dropped bytes error (maybe fixed) : 0
Duplicated bytes error (maybe fixed) : 0
Inconsistency in error sectors : 0
Track 04
Filename : /Volumes/MADLIB/04 Michel Camilo - Crossroads.flac
Pre-gap length : 00:00:53
Track gain : 1.10 dB
Peak : 0.891205
CRC32 hash (test run) : 11E2367B
CRC32 hash : 11E2367B
CRC32 hash (skip zero) : 234C75BC
AccurateRip signature : 49B13BE8
->Accurately ripped! (confidence 2)
Statistics
Read error : 0
Skipped (treated as error) : 0
Edge jitter error (maybe fixed) : 0
Atom jitter error (maybe fixed) : 0
Drift error (maybe fixed) : 0
Dropped bytes error (maybe fixed) : 0
Duplicated bytes error (maybe fixed) : 0
Inconsistency in error sectors : 0
Track 05
Filename : /Volumes/MADLIB/05 Michel Camilo - Sunset (InterludeпјЏSuite Sandrine).flac
Pre-gap length : 00:00:02
Track gain : 4.64 dB
Peak : 0.490326
CRC32 hash (test run) : 56090295
CRC32 hash : 56090295
CRC32 hash (skip zero) : EC70F2A4
AccurateRip signature : 7462E179
->Accurately ripped! (confidence 2)
Statistics
Read error : 0
Skipped (treated as error) : 0
Edge jitter error (maybe fixed) : 0
Atom jitter error (maybe fixed) : 0
Drift error (maybe fixed) : 0
Dropped bytes error (maybe fixed) : 0
Duplicated bytes error (maybe fixed) : 0
Inconsistency in error sectors : 0
Track 06
Filename : /Volumes/MADLIB/06 Michel Camilo - Yarey.flac
Pre-gap length : 00:01:53
Track gain : -0.33 dB
Peak : 0.891205
CRC32 hash (test run) : 18427323
CRC32 hash : 18427323
CRC32 hash (skip zero) : B3BAF023
AccurateRip signature : E66958E6
->Accurately ripped! (confidence 2)
Statistics
Read error : 0
Skipped (treated as error) : 0
Edge jitter error (maybe fixed) : 0
Atom jitter error (maybe fixed) : 0
Drift error (maybe fixed) : 0
Dropped bytes error (maybe fixed) : 0
Duplicated bytes error (maybe fixed) : 0
Inconsistency in error sectors : 0
Track 07
Filename : /Volumes/MADLIB/07 Michel Camilo - Pra Voce (For Tania Maria).flac
Pre-gap length : 00:01:65
Track gain : 1.15 dB
Peak : 0.889343
CRC32 hash (test run) : B3A24427
CRC32 hash : B3A24427
CRC32 hash (skip zero) : 8272038C
AccurateRip signature : 3821B213
->Accurately ripped! (confidence 2)
Statistics
Read error : 0
Skipped (treated as error) : 0
Edge jitter error (maybe fixed) : 0
Atom jitter error (maybe fixed) : 0
Drift error (maybe fixed) : 0
Dropped bytes error (maybe fixed) : 0
Duplicated bytes error (maybe fixed) : 0
Inconsistency in error sectors : 0
Track 08
Filename : /Volumes/MADLIB/08 Michel Camilo - Blue Bossa.flac
Pre-gap length : 00:01:10
Track gain : 0.45 dB
Peak : 0.775391
CRC32 hash (test run) : 31803E88
CRC32 hash : 31803E88
CRC32 hash (skip zero) : D86E5D17
AccurateRip signature : FEFC257D
->Accurately ripped! (confidence 2)
Statistics
Read error : 0
Skipped (treated as error) : 0
Edge jitter error (maybe fixed) : 0
Atom jitter error (maybe fixed) : 0
Drift error (maybe fixed) : 0
Dropped bytes error (maybe fixed) : 0
Duplicated bytes error (maybe fixed) : 0
Inconsistency in error sectors : 0
Track 09
Filename : /Volumes/MADLIB/09 Michel Camilo - Caribe.flac
Pre-gap length : 00:00:25
Track gain : -0.35 dB
Peak : 0.891205
CRC32 hash (test run) : 85D3226B
CRC32 hash : 85D3226B
CRC32 hash (skip zero) : AE7A8E15
AccurateRip signature : D5C02BAF
->Accurately ripped! (confidence 2)
Statistics
Read error : 0
Skipped (treated as error) : 0
Edge jitter error (maybe fixed) : 0
Atom jitter error (maybe fixed) : 0
Drift error (maybe fixed) : 0
Dropped bytes error (maybe fixed) : 0
Duplicated bytes error (maybe fixed) : 0
Inconsistency in error sectors : 0
No errors occurred
End of status report
 
Содержание индексной карты (.CUE)
TITLE "Michel Camilo"
PERFORMER "Michel Camilo"
REM GENRE "Jazz"
REM DATE "1988"
FILE "01 - Suite Sandrine Part I.wav" WAVE
TRACK 01 AUDIO
TITLE "Suite Sandrine Part I"
INDEX 01 00:00:00
TRACK 02 AUDIO
TITLE "Nostalgia"
INDEX 00 06:11:42
FILE "02 - Nostalgia.wav" WAVE
INDEX 01 00:00:00
TRACK 03 AUDIO
TITLE "Dreamlight"
INDEX 00 04:13:48
FILE "03 - Dreamlight.wav" WAVE
INDEX 01 00:00:00
TRACK 04 AUDIO
TITLE "Crossroads"
INDEX 00 05:19:70
FILE "04 - Crossroads.wav" WAVE
INDEX 01 00:00:00
TRACK 05 AUDIO
TITLE "Sunset (Interlude/Suite Sandrine)"
INDEX 00 04:33:50
FILE "05 - Sunset (Interlude,Suite Sandrine).wav" WAVE
INDEX 01 00:00:00
TRACK 06 AUDIO
TITLE "Yarey"
INDEX 00 03:12:25
FILE "06 - Yarey.wav" WAVE
INDEX 01 00:00:00
TRACK 07 AUDIO
TITLE "Pra Voce (For Tania Maria)"
INDEX 00 04:25:32
FILE "07 - Pra Voce (For Tania Maria).wav" WAVE
INDEX 01 00:00:00
TRACK 08 AUDIO
TITLE "Blue Bossa"
INDEX 00 04:25:20
FILE "08 - Blue Bossa.wav" WAVE
INDEX 01 00:00:00
TRACK 09 AUDIO
TITLE "Caribe"
INDEX 00 03:53:08
FILE "09 - Caribe.wav" WAVE
INDEX 01 00:00:00
 
Отчет CUETools
[CUETools log; Date: 16.11.2016 16:51:05; Version: 2.1.5]
[CTDB TOCID: FMNFhoODkn1amFVQHcZfut0va3k-] found.
Track | CTDB Status
1 | (24/24) Accurately ripped
2 | (24/24) Accurately ripped
3 | (24/24) Accurately ripped
4 | (24/24) Accurately ripped
5 | (24/24) Accurately ripped
6 | (24/24) Accurately ripped
7 | (24/24) Accurately ripped
8 | (24/24) Accurately ripped
9 | (24/24) Accurately ripped
[AccurateRip ID: 000ef240-006c4db0-7f0a6309] found.
Track [ CRC | V2 ] Status
01 [d5c73321|3d9b70f3] (03+04/44) Accurately ripped
02 [26e02e92|917058fa] (02+04/42) Accurately ripped
03 [0db8b246|c057e7fa] (03+04/43) Accurately ripped
04 [49b13be8|1de7d5ad] (02+04/41) Accurately ripped
05 [7462e179|df74bb7c] (02+04/42) Accurately ripped
06 [e66958e6|9d737f16] (02+04/42) Accurately ripped
07 [3821b213|a260c483] (02+04/43) Accurately ripped
08 [fefc257d|2a2c5a65] (02+04/43) Accurately ripped
09 [d5c02baf|5a42ede7] (02+04/43) Accurately ripped
Offsetted by -664:
01 [a473f0c1] (04/44) Accurately ripped
02 [92c2d735] (04/42) Accurately ripped
03 [319c2711] (04/43) Accurately ripped
04 [b59299d4] (04/41) Accurately ripped
05 [62ab7cb6] (04/42) Accurately ripped
06 [902195c2] (04/42) Accurately ripped
07 [c2d69e77] (04/43) Accurately ripped
08 [df0122ee] (04/43) Accurately ripped
09 [9ebf6e70] (04/43) Accurately ripped
Offsetted by 96:
01 [95d810d9] (16/44) Accurately ripped
02 [07f46d7a] (15/42) Accurately ripped
03 [485d3a2e] (15/43) Accurately ripped
04 [fefb0580] (15/41) Accurately ripped
05 [d836a216] (15/42) Accurately ripped
06 [1def6bee] (15/42) Accurately ripped
07 [0f526fc4] (16/43) Accurately ripped
08 [5891fbc1] (16/43) Accurately ripped
09 [f7e0e59a] (16/43) Accurately ripped
Track Peak [ CRC32 ] [W/O NULL]
-- 89,1 [5ED967F9] [639D05E9]
01 89,1 [E80C0186] [E65C98E9]
02 78,4 [44052C42] [DB99DAAF]
03 89,1 [3BD12B19] [F33E9D48]
04 89,1 [11E2367B] [234C75BC]
05 49,0 [56090295] [EC70F2A4]
06 89,1 [18427323] [B3BAF023]
07 88,9 [B3A24427] [8272038C]
08 77,5 [31803E88] [D86E5D17]
09 89,1 [85D3226B] [AE7A8E15]
 
AllMusic Review by Scott Yanow
Michel Camilo was one of the most stimulating jazz pianists to emerge in the mid- to late '80s. His powerful two-handed attack (full of impressive technical skills), his knowledge of both jazz and Afro-Cuban music, and his willingness to constantly take chances make each of his solos into an adventure. This Portrait set, his first date as a leader to be made available domestically, features Camilo in a pair of trios with either Marc Johnson or Lincoln Goines on bass and Dave Weckl or Joel Rosenblatt on drums; Mongo Santamaria makes some guest appearances on congas. On the spirited outing, Michel Camilo sticks to originals, with the exception of "Blue Bossa."
22:27
251
Нет комментариев. Ваш будет первым!