Поиск

(Soul-Jazz, Jazz-Funk) [CD] Clarence Wheeler And The Enforcers - The Love I've Been Looking For - 2006 (1971), FLAC (image+.cue), lossless

(Soul-Jazz, Jazz-Funk) [CD] Clarence Wheeler And The Enforcers - The Love I've Been Looking For - 2006 (1971), FLAC (image+.cue), lossless
Треклист:
Clarence Wheeler And The Enforcers / The Love I've Been Looking For
Жанр: Soul-Jazz, Jazz-Funk
Носитель: CD
Страна-производитель диска (релиза): Japan
Год издания: 2006 (1971)
Издатель (лейбл): Bomba Records
Номер по каталогу: BOM24106
Аудиокодек: FLAC (*.flac)
Тип рипа: image+.cue
Битрейт аудио: lossless
Продолжительность: 00:38:01
Источник (релизер): локальная сеть
Наличие сканов в содержимом раздачи: нет
Треклист:
1 Mighty Burner
2 The Heebie Jeebie Dance
3 Something
4 The Love I've Been Looking For
5 Broasted Or Fried
6 We've Only Just Begun
7 Hey Western Union Man
 
Лог создания рипа
Exact Audio Copy V1.0 beta 3 from 29. August 2011
EAC extraction logfile from 24. May 2014, 22:13
Clarence Wheeler And The Enforcers / The Love I've Been Looking For
Used drive : TSSTcorpCDDVDW TS-L633C Adapter: 0 ID: 1
Read mode : Secure
Utilize accurate stream : Yes
Defeat audio cache : Yes
Make use of C2 pointers : No
Read offset correction : 6
Overread into Lead-In and Lead-Out : No
Fill up missing offset samples with silence : Yes
Delete leading and trailing silent blocks : No
Null samples used in CRC calculations : Yes
Used interface : Native Win32 interface for Win NT & 2000
Used output format : User Defined Encoder
Selected bitrate : 192 kBit/s
Quality : High
Add ID3 tag : No
Command line compressor : C:\Program Files\FLAC\FLAC frontend.exe
Additional command line options : - 8 "Artist=%artist%" -w "Title=%title%" -w "Album=%albumtitle%" -w Year=%year%" -w "Track=%tracknr%" -w "Genre=%genre%" -h %source% %dest%
TOC of the extracted CD
Track | Start | Length | Start sector | End sector
---------------------------------------------------------
1 | 0:00.00 | 5:50.24 | 0 | 26273
2 | 5:50.24 | 9:37.67 | 26274 | 69615
3 | 15:28.16 | 4:26.38 | 69616 | 89603
4 | 19:54.54 | 5:45.61 | 89604 | 115539
5 | 25:40.40 | 4:13.63 | 115540 | 134577
6 | 29:54.28 | 4:54.22 | 134578 | 156649
7 | 34:48.50 | 3:12.59 | 156650 | 171108
Range status and errors
Selected range
Filename C:\Program Files\FLAC\Clarence Wheeler And The Enforcers - The Love I've Been Looking For.wav
Peak level 100.0 %
Extraction speed 2.6 X
Range quality 100.0 %
Test CRC 20393A67
Copy CRC 20393A67
Copy OK
No errors occurred
AccurateRip summary
Track 1 accurately ripped (confidence 1) [1D8BCF7A] (AR v1)
Track 2 accurately ripped (confidence 1) [A2EAD542] (AR v1)
Track 3 accurately ripped (confidence 1) [6846DBC5] (AR v1)
Track 4 accurately ripped (confidence 1) [E99AB1D2] (AR v1)
Track 5 accurately ripped (confidence 1) [66E4148F] (AR v1)
Track 6 accurately ripped (confidence 1) [42E57651] (AR v1)
Track 7 accurately ripped (confidence 1) [40D6E3D8] (AR v1)
All tracks accurately ripped
End of status report
------------------------------------------------------------
Exact Audio Copy V1.0 beta 3 from 29. August 2011
EAC extraction logfile from 24. May 2014, 22:13
Clarence Wheeler And The Enforcers / The Love I've Been Looking For
Used drive : TSSTcorpCDDVDW TS-L633C Adapter: 0 ID: 1
Read mode : Secure
Utilize accurate stream : Yes
Defeat audio cache : Yes
Make use of C2 pointers : No
Read offset correction : 6
Overread into Lead-In and Lead-Out : No
Fill up missing offset samples with silence : Yes
Delete leading and trailing silent blocks : No
Null samples used in CRC calculations : Yes
Used interface : Native Win32 interface for Win NT & 2000
Used output format : User Defined Encoder
Selected bitrate : 192 kBit/s
Quality : High
Add ID3 tag : No
Command line compressor : C:\Program Files\FLAC\FLAC frontend.exe
Additional command line options : - 8 "Artist=%artist%" -w "Title=%title%" -w "Album=%albumtitle%" -w Year=%year%" -w "Track=%tracknr%" -w "Genre=%genre%" -h %source% %dest%
TOC of the extracted CD
Track | Start | Length | Start sector | End sector
---------------------------------------------------------
1 | 0:00.00 | 5:50.24 | 0 | 26273
2 | 5:50.24 | 9:37.67 | 26274 | 69615
3 | 15:28.16 | 4:26.38 | 69616 | 89603
4 | 19:54.54 | 5:45.61 | 89604 | 115539
5 | 25:40.40 | 4:13.63 | 115540 | 134577
6 | 29:54.28 | 4:54.22 | 134578 | 156649
7 | 34:48.50 | 3:12.59 | 156650 | 171108
Range status and errors
Selected range
Filename C:\Program Files\FLAC\Clarence Wheeler And The Enforcers - The Love I've Been Looking For.wav
Peak level 100.0 %
Extraction speed 2.6 X
Range quality 100.0 %
Test CRC 20393A67
Copy CRC 20393A67
Copy OK
No errors occurred
AccurateRip summary
Track 1 accurately ripped (confidence 1) [1D8BCF7A] (AR v1)
Track 2 accurately ripped (confidence 1) [A2EAD542] (AR v1)
Track 3 accurately ripped (confidence 1) [6846DBC5] (AR v1)
Track 4 accurately ripped (confidence 1) [E99AB1D2] (AR v1)
Track 5 accurately ripped (confidence 1) [66E4148F] (AR v1)
Track 6 accurately ripped (confidence 1) [42E57651] (AR v1)
Track 7 accurately ripped (confidence 1) [40D6E3D8] (AR v1)
All tracks accurately ripped
End of status report
 
Содержание индексной карты (.CUE)
REM GENRE Jazz+Funk
REM DATE 2006
REM DISCID 5708E907
REM COMMENT "ExactAudioCopy v1.0b3"
PERFORMER "Clarence Wheeler And The Enforcers "
TITLE "The Love I've Been Looking For "
FILE "Clarence Wheeler And The Enforcers - The Love I've Been Looking For.flac" WAVE
TRACK 01 AUDIO
TITLE "Mighty Burner"
PERFORMER "Clarence Wheeler And The Enforcers "
INDEX 01 00:00:00
TRACK 02 AUDIO
TITLE "The Heebie Jeebies Dance"
PERFORMER "Clarence Wheeler And The Enforcers "
INDEX 00 05:48:05
INDEX 01 05:50:24
TRACK 03 AUDIO
TITLE "Something"
PERFORMER "Clarence Wheeler And The Enforcers "
INDEX 00 15:26:46
INDEX 01 15:28:16
TRACK 04 AUDIO
TITLE "The Love I've Been Looking For"
PERFORMER "Clarence Wheeler And The Enforcers "
INDEX 00 19:52:37
INDEX 01 19:54:54
TRACK 05 AUDIO
TITLE "Broasted Of Fried"
PERFORMER "Clarence Wheeler And The Enforcers "
INDEX 00 25:37:57
INDEX 01 25:40:40
TRACK 06 AUDIO
TITLE "We've Only Just Begun"
PERFORMER "Clarence Wheeler And The Enforcers "
INDEX 00 29:51:74
INDEX 01 29:54:28
TRACK 07 AUDIO
TITLE "Hey Western Union Man"
PERFORMER "Clarence Wheeler And The Enforcers "
INDEX 00 34:46:40
INDEX 01 34:48:50
Приватный:
Нет (DHT включён)
Размер:
258.69 Мб (271,253,435 байт) » файлов: 4
Участники:
0 раздают, 0 качают (0 участников всего)
Внешние участники:
2 раздают, 1 качают (3 участников всего) [ Обновить ]
Есть вопросы - пишите личное сообщение пользователю M0p94ok.
16:28
59
Нет комментариев. Ваш будет первым!