Поиск

(Funk, Soul, R&B, Smooth Jazz) [CD] Incognito - Blue Moods - 1997, FLAC (image+.cue), lossless

(Funk, Soul, R&B, Smooth Jazz) [CD] Incognito - Blue Moods - 1997, FLAC (image+.cue), lossless
Треклист:
Incognito / Blue Moods
Жанр: Funk, Soul, R&B, Smooth Jazz
Носитель: CD
Страна-производитель диска (релиза): UK & Europe
Год издания: 1997
Издатель (лейбл): Talkin' Loud
Номер по каталогу: 543 783-2
Аудиокодек: FLAC (*.flac)
Тип рипа: image+.cue
Битрейт аудио: lossless
Продолжительность: 01:13:41
Источник (релизер): локальная сеть
Наличие сканов в содержимом раздачи: нет
Треклист:
01 Colibre 5:59
02 Love Is The Colour 4:07
03 Magnetic Ocean 5:18
04 Deep Waters 6:32
05 L'Arc En Ciel De Miles 3:59
06 Gypsy 5:28
07 Journey Into Sunlight 4:07
08 Sunchild 3:15
09 Millenium 6:15
10 Thinking 'Bout Tomorrow 5:42
11 Jacob's Ladder 5:59
12 She Wears Black 8:46
13 Dark Side Of The Cog 6:27
 
Лог создания рипа
Exact Audio Copy V1.0 beta 1 from 15. November 2010
EAC extraction logfile from 29. November 2010, 19:44
Incognito / Blue Moods
Used drive : ATAPI DVD A DH20A4P Adapter: 1 ID: 0
Read mode : Secure
Utilize accurate stream : Yes
Defeat audio cache : Yes
Make use of C2 pointers : No
Read offset correction : 6
Overread into Lead-In and Lead-Out : No
Fill up missing offset samples with silence : Yes
Delete leading and trailing silent blocks : No
Null samples used in CRC calculations : Yes
Used interface : Installed external ASPI interface
Used output format : User Defined Encoder
Selected bitrate : 1024 kBit/s
Quality : High
Add ID3 tag : No
Command line compressor : C:\Program Files\Exact Audio Copy\Flac\flac.exe
Additional command line options : -8 -V -T "ARTIST=%a" -T "TITLE=%t" -T "ALBUM=%g" -T "DATE=%y" -T "TRACKNUMBER=%n" -T "GENRE=%m" -T "COMMENT=EAC FLAC -8" %s
TOC of the extracted CD
Track | Start | Length | Start sector | End sector
---------------------------------------------------------
1 | 0:00.00 | 6:01.42 | 0 | 27116
2 | 6:01.42 | 4:11.38 | 27117 | 45979
3 | 10:13.05 | 5:21.02 | 45980 | 70056
4 | 15:34.07 | 6:36.30 | 70057 | 99786
5 | 22:10.37 | 4:02.20 | 99787 | 117956
6 | 26:12.57 | 5:30.68 | 117957 | 142774
7 | 31:43.50 | 4:09.47 | 142775 | 161496
8 | 35:53.22 | 4:18.55 | 161497 | 180901
9 | 40:12.02 | 6:20.18 | 180902 | 209419
10 | 46:32.20 | 5:55.20 | 209420 | 236064
11 | 52:27.40 | 6:07.45 | 236065 | 263634
12 | 58:35.10 | 8:48.47 | 263635 | 303281
13 | 67:23.57 | 6:17.23 | 303282 | 331579
Range status and errors
Selected range
Filename D:\Incognito - Blue Moods - 1997.wav
Peak level 98.8 %
Extraction speed 0.3 X
Range quality 100.0 %
Test CRC 94411CBF
Copy CRC 94411CBF
Copy OK
No errors occurred
AccurateRip summary
Track 1 accurately ripped (confidence 5) [674A6F38]
Track 2 accurately ripped (confidence 4) [A710158A]
Track 3 accurately ripped (confidence 4) [BE624B6F]
Track 4 accurately ripped (confidence 4) [D187AB16]
Track 5 accurately ripped (confidence 4) [0AE81D0F]
Track 6 accurately ripped (confidence 4) [DF22ADA3]
Track 7 accurately ripped (confidence 4) [B32ABAE4]
Track 8 accurately ripped (confidence 4) [5A967F1B]
Track 9 accurately ripped (confidence 4) [C492D10B]
Track 10 accurately ripped (confidence 4) [E040D960]
Track 11 accurately ripped (confidence 4) [54A5BE0B]
Track 12 accurately ripped (confidence 4) [AAC5F4F1]
Track 13 accurately ripped (confidence 4) [1B5B8212]
All tracks accurately ripped
End of status report
==== Log checksum D9C0A6A295898ED54A19CCA54ADAB364D043ED1B48668389A28B7BDE85A738F9 ====
 
Содержание индексной карты (.CUE)
REM GENRE "Acid Jazz"
REM DATE 1997
REM DISCID B111450D
REM COMMENT "ExactAudioCopy v1.0b1"
PERFORMER "Incognito"
TITLE "Blue Moods"
FILE "Incognito - Blue Moods - 1997.flac" WAVE
TRACK 01 AUDIO
TITLE "Colibri"
PERFORMER "Incognito"
INDEX 01 00:00:00
TRACK 02 AUDIO
TITLE "Love is the colour"
PERFORMER "Incognito"
INDEX 00 05:59:45
INDEX 01 06:01:42
TRACK 03 AUDIO
TITLE "Magnetic ocean"
PERFORMER "Incognito"
INDEX 00 10:11:07
INDEX 01 10:13:05
TRACK 04 AUDIO
TITLE "Deep waters"
PERFORMER "Incognito"
INDEX 00 15:32:32
INDEX 01 15:34:07
TRACK 05 AUDIO
TITLE "L'Arc en ciel de miles"
PERFORMER "Incognito"
INDEX 00 22:08:70
INDEX 01 22:10:37
TRACK 06 AUDIO
TITLE "Gypsy"
PERFORMER "Incognito"
INDEX 00 26:11:47
INDEX 01 26:12:57
TRACK 07 AUDIO
TITLE "Journey into sunlight"
PERFORMER "Incognito"
INDEX 00 31:41:62
INDEX 01 31:43:50
TRACK 08 AUDIO
TITLE "Sunchild"
PERFORMER "Incognito"
INDEX 00 35:51:12
INDEX 01 35:53:22
TRACK 09 AUDIO
TITLE "Millenium"
PERFORMER "Incognito"
INDEX 00 40:09:60
INDEX 01 40:12:02
TRACK 10 AUDIO
TITLE "Thinking'bout tomorrow"
PERFORMER "Incognito"
INDEX 00 46:30:32
INDEX 01 46:32:20
TRACK 11 AUDIO
TITLE "Jacob's ladder"
PERFORMER "Incognito"
INDEX 00 52:25:10
INDEX 01 52:27:40
TRACK 12 AUDIO
TITLE "She wears black"
PERFORMER "Incognito"
INDEX 00 58:33:02
INDEX 01 58:35:10
TRACK 13 AUDIO
TITLE "Dark side of the cog"
PERFORMER "Incognito"
INDEX 00 67:21:32
INDEX 01 67:23:57
Приватный:
Нет (DHT включён)
Размер:
460.00 Мб (482,346,544 байт) » файлов: 4
Участники:
0 раздают, 0 качают (0 участников всего)
Внешние участники:
2 раздают, 1 качают (3 участников всего) [ Обновить ]
Есть вопросы - пишите личное сообщение пользователю M0p94ok.
16:28
64
Нет комментариев. Ваш будет первым!