Поиск

(Soul, Jazz, Funk, R&B) [WEB] Sandra Nkaké (Nkake) - Tangerine Moon Wishes - 2017, FLAC (tracks), lossless

(Soul, Jazz, Funk, R&B) [WEB] Sandra Nkaké (Nkake) - Tangerine Moon Wishes - 2017, FLAC (tracks), lossless
Треклист:
Sandra Nkaké / Tangerine Moon Wishes
Жанр: Soul, Jazz, Funk, R&B
Носитель: WEB
Год издания: 2017
Издатель (лейбл): Jazz Village
Страна исполнителя (группы): Yaoundé (Cameroun)
Аудиокодек: FLAC (*.flac)
Тип рипа: tracks
Битрейт аудио: lossless
Продолжительность: 00:55:32
Источник (релизер): qobuz
Наличие сканов в содержимом раздачи: да
Треклист:
01. The Dawn
02. Dreaming
03. Hope
04. Mon Cœur
05. Un Vœu
06. Change
07. Fly
08. The Last Journey
09. Nuit
10. L'Appel
11. Maybe
12. The Dusk
13. Lune Rousse
14. River (Bonus Track)
 
DR Log
foobar2000 1.1.10 / Dynamic Range Meter 1.1.1
log date: 2017-09-15 18:59:59
--------------------------------------------------------------------------------
Analyzed: Sandra Nkaké / Tangerine Moon Wishes
--------------------------------------------------------------------------------
DR Peak RMS Duration Track
--------------------------------------------------------------------------------
DR7 -0.12 dB -8.68 dB 4:02 ?-The Dawn
DR6 -0.12 dB -8.43 dB 4:15 ?-Dreaming
DR6 -0.12 dB -7.80 dB 4:47 ?-Hope
DR6 -0.12 dB -8.08 dB 3:28 ?-Mon Cœur
DR11 -0.13 dB -14.98 dB 1:53 ?-Un Vœu
DR6 -0.11 dB -8.73 dB 4:08 ?-Change
DR6 -0.12 dB -8.67 dB 5:13 ?-Fly
DR6 -0.11 dB -9.07 dB 4:44 ?-The Last Journey
DR7 -0.12 dB -9.69 dB 3:20 ?-Nuit
DR8 -0.13 dB -12.43 dB 1:18 ?-L'Appel
DR6 -0.12 dB -9.17 dB 4:14 ?-Maybe
DR6 -0.11 dB -9.41 dB 4:21 ?-The Dusk
DR7 -0.05 dB -10.53 dB 4:47 ?-Lune Rousse
DR6 -0.11 dB -8.41 dB 5:02 ?-River (Bonus Track)
--------------------------------------------------------------------------------
Number of tracks: 14
Official DR value: DR7
Samplerate: 44100 Hz
Channels: 2
Bits per sample: 16
Bitrate: 918 kbps
Codec: FLAC
================================================================================
 
Лог проверки качества
-----------------------
DON'T MODIFY THIS FILE
-----------------------
PERFORMER: auCDtect Task Manager, ver. 1.5.1RC4 build 1.5.1.5
Copyright (c) 2008-2010 y-soft. All rights reserved
http://y-soft.org
ANALYZER: auCDtect: CD records authenticity detector, version 0.8.2
Copyright (c) 2004 Oleg Berngardt. All rights reserved.
Copyright (c) 2004 Alexander Djourik. All rights reserved.
FILE: 14. River (Bonus Track).flac
Size: 34733743 Hash: 2C3A687B782359401129F4B254457709 Accuracy: -m0
Conclusion: CDDA 100%
Signature: 68643ED7BC921BF9211F94E01737F161D17E6602
FILE: 13. Lune Rousse.flac
Size: 31675931 Hash: 2338F9E68869E53F6EE73D10FD961855 Accuracy: -m0
Conclusion: CDDA 100%
Signature: 87AB9D5CFDF0D9B69299D55F3FA964228331FA85
FILE: 12. The Dusk.flac
Size: 26727866 Hash: 31C6EFAE669E04E239C9CB502E14C986 Accuracy: -m0
Conclusion: CDDA 100%
Signature: 2DED695B96CF1C113E1146344825195F6C43CB66
FILE: 11. Maybe.flac
Size: 26653041 Hash: A3006E3E05AC13D0F84B8E479BEA42B4 Accuracy: -m0
Conclusion: CDDA 100%
Signature: 8A09F1CC541F8ADACCCDC1DB1B6CE016E973E7F7
FILE: 10. L'Appel.flac
Size: 7788233 Hash: C7F64420846E523BAA9825A7E3B68828 Accuracy: -m0
Conclusion: CDDA 100%
Signature: C8E8732215B8BCAD18E2F40C766134728247173D
FILE: 09. Nuit.flac
Size: 20448342 Hash: C8FE8055CBABA3F36CCF56C23C25A686 Accuracy: -m0
Conclusion: CDDA 100%
Signature: 2335691A468C420BB490BAC21B831F923BCAA0EB
FILE: 08. The Last Journey.flac
Size: 30375595 Hash: B4408A542F438ABDA37B464CCB9DCEC0 Accuracy: -m0
Conclusion: CDDA 100%
Signature: 07C77C143F2ACEBB732755B170C0DDFF6AD07D82
FILE: 07. Fly.flac
Size: 34870742 Hash: 996DF3EAC7B2FF85756E762097D53277 Accuracy: -m0
Conclusion: CDDA 100%
Signature: C89A53210BAD4449A38C29EBFDEABF1CE577B9EC
FILE: 06. Change.flac
Size: 29263738 Hash: 43AFE723298E1342E2FFF275BD112406 Accuracy: -m0
Conclusion: CDDA 100%
Signature: 3D139630FE9EE125263B8CA22509B382D4B71C04
FILE: 05. Un Vœu.flac
Size: 11504854 Hash: 975374F3D8F8DF1878D20B91F0C15801 Accuracy: -m0
Conclusion: CDDA 100%
Signature: 25638697FEB68A638E097C1253FF9A6A428F0E52
FILE: 04. Mon Cœur.flac
Size: 23178114 Hash: 577560847565534A5682BDE1834CA29E Accuracy: -m0
Conclusion: CDDA 100%
Signature: 75202B6AEA46846078AA9EE28B0B58C5DA5F8632
FILE: 03. Hope.flac
Size: 31938920 Hash: 75FE1538CA52615131ED0654B39254D3 Accuracy: -m0
Conclusion: CDDA 100%
Signature: 763FE9705E07C9924E7BB30A376DABDAD3D456CE
FILE: 02. Dreaming.flac
Size: 27517063 Hash: 887E09C133A20662F41FD8F1C9C5E3E3 Accuracy: -m0
Conclusion: CDDA 100%
Signature: 786D2F27401B0A1CAE0C9FFA4011A72619AD97BB
FILE: 01. The Dawn.flac
Size: 25556295 Hash: 7033E322BD562C52A8E81CFDB4F30F52 Accuracy: -m0
Conclusion: CDDA 100%
Signature: 541E31C8251B06CBFF9E014D2E3F7D005F91CF99
 
Об исполнителе (группе)
Приватный:
Нет (DHT включён)
Размер:
346.75 Мб (363,589,761 байт) » файлов: 18
Участники:
0 раздают, 0 качают (0 участников всего)
Внешние участники:
1 раздают, 0 качают (1 участников всего) [ Обновить ]
Есть вопросы - пишите личное сообщение пользователю M0p94ok.
14:35
34
Нет комментариев. Ваш будет первым!