Поиск

(Funk / Soul) [CD] Ray Parker Jr. - 2 альбома (Two Places At The Same Time & The Other Woman) - 2016/2017, FLAC (tracks+.cue), lossless

(Funk / Soul) [CD] Ray Parker Jr. - 2 альбома (Two Places At The Same Time & The Other Woman) - 2016/2017, FLAC (tracks+.cue), lossless
Треклист:
Ray Parker Jr. / 2 альбома (Two Places At The Same Time & The Other Woman)
Жанр: Funk / Soul
Носитель: CD
Страна-производитель диска (релиза): Japan
Год издания: 2016/2017
Издатель (лейбл): Arista
Номер по каталогу: SICP-4855 / SICP-5497
Страна исполнителя (группы): usa
Аудиокодек: FLAC (*.flac)
Тип рипа: tracks+.cue
Битрейт аудио: lossless
Продолжительность: 94:16
Источник (релизер): teimuraz67
Наличие сканов в содержимом раздачи: да
Треклист:
 
2016(1980) - Two Places At The Same Time - 43:08
Треклист:
01 It's Time To Party Now (04:59)
02 Until The Morning Comes (04:29)
03 Two Places At The Same Time (03:57)
04 Tonight's The Night (05:12)
05 A Little Bit Of You (04:22)
06 Everybody Makes Mistakes (05:00)
07 Can't Keep From Cryin' (03:41)
08 For Those Who Like To Groove (04:31)
09 It's Time To Party Now (12" Ver.) (06:52)
 
Лог создания рипа
Exact Audio Copy V1.0 beta 2 from 29. April 2011
Отчёт EAC об извлечении, выполненном 14. сентября 2017, 22:37
Ray Parker Jr. And Raydio / Two Places At The Same Time
Дисковод: PLEXTOR BDDVDRPX-B330SA Adapter: 0 ID: 1
Режим чтения : Достоверность
Использование точного потока : Да
Отключение кэша аудио : Да
Использование указателей C2 : Нет
Коррекция смещения при чтении : 702
Способность читать области Lead-in и Lead-out : Нет
Заполнение пропущенных сэмплов тишиной : Да
Удаление блоков с тишиной в начале и конце : Нет
При вычислениях CRC использовались нулевые сэмплы : Да
Интерфейс : Встроенный Win32-интерфейс для Win NT/2000
Обработка зазоров : Добавлено к предыдущему треку
Выходной формат : Пользовательский кодировщик
Выбранный битрейт : 128 kBit/s
Качество : Высокий
Добавление ID3-тега : Нет
Утилита сжатия : C:\Program Files\Exact Audio Copy\FLAC\FLAC.EXE
Дополнительные параметры : -6 -V -T "ARTIST=%artist%" -T "TITLE=%title%" -T "ALBUM=%albumtitle%" -T "DATE=%year%" -T "TRACKNUMBER=%tracknr%" -T "GENRE=%genre%" -T "COMMENT=%comment%" -T "BAND=%albuminterpret%" -T "COMPOSER=%composer%" %haslyrics%--tag-from-
TOC извлечённого CD
Трек | Старт | Длительность | Начальный сектор | Конечный сектор
---------------------------------------------------------------------
1 | 0:00.00 | 4:59.02 | 0 | 22426
2 | 4:59.02 | 4:29.58 | 22427 | 42659
3 | 9:28.60 | 3:57.20 | 42660 | 60454
4 | 13:26.05 | 5:12.73 | 60455 | 83927
5 | 18:39.03 | 4:22.06 | 83928 | 103583
6 | 23:01.09 | 5:00.66 | 103584 | 126149
7 | 28:02.00 | 3:41.48 | 126150 | 142772
8 | 31:43.48 | 4:31.67 | 142773 | 163164
9 | 36:15.40 | 6:52.71 | 163165 | 194135
Трек 1
Имя файла D:\FLAC\01 It's Time To Party Now.wav
Длина предзазора 0:00:02.00
Пиковый уровень 100.0 %
Скорость извлечения 5.1 X
Качество трека 100.0 %
CRC теста A6EFA736
CRC копии A6EFA736
Точное извлечение (достоверность 2) [46F41700] (AR v2)
Копирование... OK
Трек 2
Имя файла D:\FLAC\02 Until The Morning Comes.wav
Длина предзазора 0:00:02.35
Пиковый уровень 100.0 %
Скорость извлечения 5.5 X
Качество трека 100.0 %
CRC теста 478BABEE
CRC копии 478BABEE
Точное извлечение (достоверность 2) [6BCAA7F8] (AR v2)
Копирование... OK
Трек 3
Имя файла D:\FLAC\03 Two Places At The Same Time.wav
Длина предзазора 0:00:02.65
Пиковый уровень 100.0 %
Скорость извлечения 6.1 X
Качество трека 100.0 %
CRC теста B2EBBD53
CRC копии B2EBBD53
Точное извлечение (достоверность 2) [A6D5018D] (AR v2)
Копирование... OK
Трек 4
Имя файла D:\FLAC\04 Tonight's The Night.wav
Длина предзазора 0:00:03.71
Пиковый уровень 100.0 %
Скорость извлечения 6.5 X
Качество трека 100.0 %
CRC теста 2289DF4E
CRC копии 2289DF4E
Точное извлечение (достоверность 2) [31ED77DE] (AR v2)
Копирование... OK
Трек 5
Имя файла D:\FLAC\05 A Little Bit Of You.wav
Длина предзазора 0:00:03.42
Пиковый уровень 100.0 %
Скорость извлечения 7.0 X
Качество трека 100.0 %
CRC теста 9BE320EC
CRC копии 9BE320EC
Точное извлечение (достоверность 2) [19A1F2C7] (AR v2)
Копирование... OK
Трек 6
Имя файла D:\FLAC\06 Everybody Makes Mistakes.wav
Длина предзазора 0:00:02.12
Пиковый уровень 100.0 %
Скорость извлечения 7.6 X
Качество трека 100.0 %
CRC теста F5308BA3
CRC копии F5308BA3
Точное извлечение (достоверность 2) [E04DD6F4] (AR v2)
Копирование... OK
Трек 7
Имя файла D:\FLAC\07 Can't Keep From Cryin'.wav
Длина предзазора 0:00:01.54
Пиковый уровень 100.0 %
Скорость извлечения 7.5 X
Качество трека 100.0 %
CRC теста CD31EE4C
CRC копии CD31EE4C
Точное извлечение (достоверность 2) [184C26D3] (AR v2)
Копирование... OK
Трек 8
Имя файла D:\FLAC\08 For Those Who Like To Groove.wav
Длина предзазора 0:00:02.07
Пиковый уровень 100.0 %
Скорость извлечения 7.1 X
Качество трека 99.9 %
CRC теста D107561D
CRC копии D107561D
Точное извлечение (достоверность 2) [1B44E7AB] (AR v2)
Копирование... OK
Трек 9
Имя файла D:\FLAC\09 It's Time To Party Now (12'' Ver.).wav
Длина предзазора 0:00:00.74
Пиковый уровень 100.0 %
Скорость извлечения 8.7 X
Качество трека 100.0 %
CRC теста E5BC1BF5
CRC копии E5BC1BF5
Точное извлечение (достоверность 2) [9DD0C53B] (AR v2)
Копирование... OK
Все треки извлечены точно
Ошибок не произошло
Конец отчёта
---- CUETools DB Plugin V2.1.4
[CTDB TOCID: 3v7Q89_7mP3gl90WOt50SUyrJaE-] found
Submit result: already submitted
Track | CTDB Status
1 | (5/5) Accurately ripped
2 | (5/5) Accurately ripped
3 | (5/5) Accurately ripped
4 | (5/5) Accurately ripped
5 | (5/5) Accurately ripped
6 | (5/5) Accurately ripped
7 | (5/5) Accurately ripped
8 | (5/5) Accurately ripped
9 | (5/5) Accurately ripped
==== Контрольная сумма отчёта F8B93B4DD2E0A080C411ED384F928179F78FC01FAA3E4AEC6C579D91D16C6459 ====
 
Содержание индексной карты (.CUE)
REM GENRE Funk
REM DATE 2016
REM DISCID 690A1C09
REM COMMENT "ExactAudioCopy v1.0b2"
CATALOG <208000808411
PERFORMER "Ray Parker Jr. And Raydio"
TITLE "Two Places At The Same Time"
FILE "01 It's Time To Party Now.wav" WAVE
TRACK 01 AUDIO
TITLE " It's Time To Party Now "
PERFORMER "Unknown Artist"
ISRC USAR18000171
INDEX 01 00:00:00
TRACK 02 AUDIO
TITLE "Until The Morning Comes"
PERFORMER "Unknown Artist"
ISRC USAR10400821
INDEX 00 04:56:42
FILE "02 Until The Morning Comes.wav" WAVE
INDEX 01 00:00:00
TRACK 03 AUDIO
TITLE "Two Places At The Same Time"
PERFORMER "Unknown Artist"
ISRC USAR18000121
INDEX 00 04:26:68
FILE "03 Two Places At The Same Time.wav" WAVE
INDEX 01 00:00:00
TRACK 04 AUDIO
TITLE "Tonight's The Night"
PERFORMER "Unknown Artist"
ISRC USAR18000215
INDEX 00 03:53:24
FILE "04 Tonight's The Night.wav" WAVE
INDEX 01 00:00:00
TRACK 05 AUDIO
TITLE " A Little Bit Of You "
PERFORMER "Unknown Artist"
ISRC USAR10400822
INDEX 00 05:09:31
FILE "05 A Little Bit Of You.wav" WAVE
INDEX 01 00:00:00
TRACK 06 AUDIO
TITLE "Everybody Makes Mistakes"
PERFORMER "Unknown Artist"
ISRC USAR10400823
INDEX 00 04:19:69
FILE "06 Everybody Makes Mistakes.wav" WAVE
INDEX 01 00:00:00
TRACK 07 AUDIO
TITLE "Can't Keep From Cryin'"
PERFORMER "Unknown Artist"
ISRC USAR10200638
INDEX 00 04:59:12
FILE "07 Can't Keep From Cryin'.wav" WAVE
INDEX 01 00:00:00
TRACK 08 AUDIO
TITLE "For Those Who Like To Groove"
PERFORMER "Unknown Artist"
ISRC USAR18000120
INDEX 00 03:39:41
FILE "08 For Those Who Like To Groove.wav" WAVE
INDEX 01 00:00:00
TRACK 09 AUDIO
TITLE "It's Time To Party Now (12' Ver.) "
PERFORMER "Unknown Artist"
ISRC USAR18000146
INDEX 00 04:30:68
FILE "09 It's Time To Party Now (12'' Ver.).wav" WAVE
INDEX 01 00:00:00
 
2017 (1982) - The Other Woman - 51:08
Треклист:
01 The Other Woman (04:07)
02 Streetlove (05:31)
03 Stay The Night (04:03)
04 It's Our Own Affair (03:54)
05 Let Me Go (05:05)
06 Let's Get Off (04:54)
07 Stop, Look Before You Love (04:02)
08 Just Havin' Fun (03:26)
09 The Other Woman (12'' Version) (05:54)
10 Bad Boy (Single Version) (04:14)
11 The Other Woman (12'' Instrumental Version) (05:54)
 
Лог создания рипа
Exact Audio Copy V1.0 beta 2 from 29. April 2011
Отчёт EAC об извлечении, выполненном 14. сентября 2017, 23:18
Ray Parker Jr. / The Other Woman
Дисковод: PLEXTOR BDDVDRPX-B330SA Adapter: 0 ID: 1
Режим чтения : Достоверность
Использование точного потока : Да
Отключение кэша аудио : Да
Использование указателей C2 : Нет
Коррекция смещения при чтении : 702
Способность читать области Lead-in и Lead-out : Нет
Заполнение пропущенных сэмплов тишиной : Да
Удаление блоков с тишиной в начале и конце : Нет
При вычислениях CRC использовались нулевые сэмплы : Да
Интерфейс : Встроенный Win32-интерфейс для Win NT/2000
Обработка зазоров : Добавлено к предыдущему треку
Выходной формат : Пользовательский кодировщик
Выбранный битрейт : 128 kBit/s
Качество : Высокий
Добавление ID3-тега : Нет
Утилита сжатия : C:\Program Files\Exact Audio Copy\FLAC\FLAC.EXE
Дополнительные параметры : -6 -V -T "ARTIST=%artist%" -T "TITLE=%title%" -T "ALBUM=%albumtitle%" -T "DATE=%year%" -T "TRACKNUMBER=%tracknr%" -T "GENRE=%genre%" -T "COMMENT=%comment%" -T "BAND=%albuminterpret%" -T "COMPOSER=%composer%" %haslyrics%--tag-from-
TOC извлечённого CD
Трек | Старт | Длительность | Начальный сектор | Конечный сектор
---------------------------------------------------------------------
1 | 0:00.29 | 4:07.72 | 29 | 18625
2 | 4:08.26 | 5:31.27 | 18626 | 43477
3 | 9:39.53 | 4:03.62 | 43478 | 61764
4 | 13:43.40 | 3:54.17 | 61765 | 79331
5 | 17:37.57 | 5:05.04 | 79332 | 102210
6 | 22:42.61 | 4:54.54 | 102211 | 124314
7 | 27:37.40 | 4:02.04 | 124315 | 142468
8 | 31:39.44 | 3:26.01 | 142469 | 157919
9 | 35:05.45 | 5:54.68 | 157920 | 184537
10 | 41:00.38 | 4:14.00 | 184538 | 203587
11 | 45:14.38 | 5:54.49 | 203588 | 230186
Трек 1
Имя файла D:\FLAC\01 The Other Woman.wav
Длина предзазора 0:00:02.29
Пиковый уровень 98.0 %
Скорость извлечения 4.4 X
Качество трека 99.9 %
CRC теста 37399ECF
CRC копии 37399ECF
Точное извлечение (достоверность 8) [A4A224BA] (AR v2)
Копирование... OK
Трек 2
Имя файла D:\FLAC\02 Streetlove.wav
Пиковый уровень 98.4 %
Скорость извлечения 5.0 X
Качество трека 99.9 %
CRC теста AEBE2790
CRC копии AEBE2790
Точное извлечение (достоверность 8) [BEF6CC59] (AR v2)
Копирование... OK
Трек 3
Имя файла D:\FLAC\03 Stay The Night.wav
Длина предзазора 0:00:00.31
Пиковый уровень 79.7 %
Скорость извлечения 6.0 X
Качество трека 100.0 %
CRC теста DA376EF5
CRC копии DA376EF5
Точное извлечение (достоверность 8) [01B08D32] (AR v2)
Копирование... OK
Трек 4
Имя файла D:\FLAC\04 It's Our Own Affair.wav
Длина предзазора 0:00:00.57
Пиковый уровень 98.2 %
Скорость извлечения 6.1 X
Качество трека 100.0 %
CRC теста 18E1CE38
CRC копии 18E1CE38
Точное извлечение (достоверность 8) [F972B293] (AR v2)
Копирование... OK
Трек 5
Имя файла D:\FLAC\05 Let Me Go.wav
Длина предзазора 0:00:01.56
Пиковый уровень 93.7 %
Скорость извлечения 7.0 X
Качество трека 100.0 %
CRC теста 3F000AC4
CRC копии 3F000AC4
Точное извлечение (достоверность 8) [D000196D] (AR v2)
Копирование... OK
Трек 6
Имя файла D:\FLAC\06 Let's Get Off.wav
Длина предзазора 0:00:01.04
Пиковый уровень 84.6 %
Скорость извлечения 7.6 X
Качество трека 100.0 %
CRC теста F86B8DE8
CRC копии F86B8DE8
Точное извлечение (достоверность 8) [DDF6E619] (AR v2)
Копирование... OK
Трек 7
Имя файла D:\FLAC\07 Stop, Look Before You Love.wav
Длина предзазора 0:00:00.47
Пиковый уровень 98.5 %
Скорость извлечения 7.5 X
Качество трека 100.0 %
CRC теста B4E96913
CRC копии B4E96913
Точное извлечение (достоверность 8) [9179E542] (AR v2)
Копирование... OK
Трек 8
Имя файла D:\FLAC\08 Just Havin' Fun.wav
Длина предзазора 0:00:02.07
Пиковый уровень 98.0 %
Скорость извлечения 7.9 X
Качество трека 100.0 %
CRC теста 3E829634
CRC копии 3E829634
Точное извлечение (достоверность 8) [240F3152] (AR v2)
Копирование... OK
Трек 9
Имя файла D:\FLAC\09 The Other Woman (12'' Version).wav
Длина предзазора 0:00:04.56
Пиковый уровень 86.9 %
Скорость извлечения 7.5 X
Качество трека 99.9 %
CRC теста 3612B292
CRC копии 3612B292
Точное извлечение (достоверность 8) [EC93F530] (AR v2)
Копирование... OK
Трек 10
Имя файла D:\FLAC\10 Bad Boy (Non Album Track from 1982).wav
Длина предзазора 0:00:01.57
Пиковый уровень 98.1 %
Скорость извлечения 8.5 X
Качество трека 100.0 %
CRC теста 984D4DA4
CRC копии 984D4DA4
Точное извлечение (достоверность 8) [BF8EE392] (AR v2)
Копирование... OK
Трек 11
Имя файла D:\FLAC\11 The Other Woman (12'' Instrumental Version).wav
Длина предзазора 0:00:01.57
Пиковый уровень 80.4 %
Скорость извлечения 7.6 X
Качество трека 100.0 %
CRC теста 978F5287
CRC копии 978F5287
Точное извлечение (достоверность 8) [10C42711] (AR v2)
Копирование... OK
Все треки извлечены точно
Ошибок не произошло
Конец отчёта
---- CUETools DB Plugin V2.1.4
[CTDB TOCID: 5fV.YzrWrEDZx6YxaafJCd.w9XI-] found
Submit result: already submitted
Track | CTDB Status
1 | (7/7) Accurately ripped
2 | (7/7) Accurately ripped
3 | (7/7) Accurately ripped
4 | (7/7) Accurately ripped
5 | (7/7) Accurately ripped
6 | (7/7) Accurately ripped
7 | (7/7) Accurately ripped
8 | (7/7) Accurately ripped
9 | (7/7) Accurately ripped
10 | (7/7) Accurately ripped
11 | (7/7) Accurately ripped
==== Контрольная сумма отчёта 7CBB8AC447CB7132775A7F7E6F002CBB13532BA12A4DF2075983ABC085E1D324 ====
 
Содержание индексной карты (.CUE)
REM GENRE "Funk Pop"
REM DISCID 8B0BFD0B
REM COMMENT "ExactAudioCopy v1.0b2"
PERFORMER "Ray Parker Jr."
TITLE "The Other Woman "
FILE "01 The Other Woman.wav" WAVE
TRACK 01 AUDIO
TITLE "The Other Woman"
PERFORMER "Ray Parker Jr."
ISRC USAR18200013
PREGAP 00:00:29
INDEX 01 00:00:00
FILE "02 Streetlove.wav" WAVE
TRACK 02 AUDIO
TITLE "Streetlove"
PERFORMER "Ray Parker Jr."
ISRC USAR10800972
INDEX 01 00:00:00
TRACK 03 AUDIO
TITLE "Stay The Night"
PERFORMER "Ray Parker Jr."
ISRC USAR10800973
INDEX 00 05:30:71
FILE "03 Stay The Night.wav" WAVE
INDEX 01 00:00:00
TRACK 04 AUDIO
TITLE "It's Our Own Affair"
PERFORMER "Ray Parker Jr."
ISRC USAR18200205
INDEX 00 04:03:05
FILE "04 It's Our Own Affair.wav" WAVE
INDEX 01 00:00:00
TRACK 05 AUDIO
TITLE "Let Me Go"
PERFORMER "Ray Parker Jr."
ISRC USAR10300317
INDEX 00 03:52:36
FILE "05 Let Me Go.wav" WAVE
INDEX 01 00:00:00
TRACK 06 AUDIO
TITLE "Let's Get Off"
PERFORMER "Ray Parker Jr."
ISRC USAR10800974
INDEX 00 05:04:00
FILE "06 Let's Get Off.wav" WAVE
INDEX 01 00:00:00
TRACK 07 AUDIO
TITLE "Stop, Look Before You Love"
PERFORMER "Ray Parker Jr."
ISRC USAR10800975
INDEX 00 04:54:07
FILE "07 Stop, Look Before You Love.wav" WAVE
INDEX 01 00:00:00
TRACK 08 AUDIO
TITLE "Just Havin' Fun"
PERFORMER "Ray Parker Jr."
ISRC USAR10800976
INDEX 00 03:59:72
FILE "08 Just Havin' Fun.wav" WAVE
INDEX 01 00:00:00
TRACK 09 AUDIO
TITLE "The Other Woman (12'' Version)"
PERFORMER "Ray Parker Jr."
ISRC USAR11200060
INDEX 00 03:21:20
FILE "09 The Other Woman (12'' Version).wav" WAVE
INDEX 01 00:00:00
TRACK 10 AUDIO
TITLE "Bad Boy (Non Album Track from 1982)"
PERFORMER "Ray Parker Jr."
ISRC USAR18200124
INDEX 00 05:53:11
FILE "10 Bad Boy (Non Album Track from 1982).wav" WAVE
INDEX 01 00:00:00
TRACK 11 AUDIO
TITLE "The Other Woman (12'' Instrumental Version)"
PERFORMER "Ray Parker Jr."
ISRC USAR11200061
INDEX 00 04:12:18
FILE "11 The Other Woman (12'' Instrumental Version).wav" WAVE
INDEX 01 00:00:00
http://www.hmv.co.jp/artist_Ray-Parker-Jr_000000000005405/item_Other-Woman-Ltd_7934493
http://www.billboard-japan.com/goods/detail/526529
Приватный:
Нет (DHT включён)
Размер:
602.87 Мб (632,155,007 байт) » файлов: 50
Участники:
0 раздают, 0 качают (0 участников всего)
Внешние участники:
5 раздают, 2 качают (7 участников всего) [ Обновить ]
Есть вопросы - пишите личное сообщение пользователю M0p94ok.
14:34
54
Нет комментариев. Ваш будет первым!