Поиск

(Soul Jazz, Free Jazz, Ethnic Jazz) [CD] Famoudou Don Moye, Baba Sissoko, Maurizio Capone - Folk Bass Spirit Suite - 2004, FLAC (tracks+.cue), lossless

(Soul Jazz, Free Jazz, Ethnic Jazz) [CD] Famoudou Don Moye, Baba Sissoko, Maurizio Capone - Folk Bass Spirit Suite - 2004, FLAC (tracks+.cue), lossless
Треклист:
Famoudou Don Moye, Baba Sissoko, Maurizio Capone / Folk Bass Spirit Suite
Жанр: Soul Jazz, Free Jazz, Ethnic Jazz
Носитель: CD
Страна-производитель диска: Italy
Год издания: 2004
Издатель (лейбл): Itinera Musica
Номер по каталогу: ITN 001
Страна: US, Italy
Аудиокодек: FLAC (*.flac)
Тип рипа: tracks+.cue
Битрейт аудио: lossless
Продолжительность: 60:49
Источник (релизер): свой фирменный диск
Наличие сканов в содержимом раздачи:
Треклист:
1. Folo Folo 6:04
2. Mama Marimba 5:34
3. Salamandra 6:05
4. Ma Fille 4:17
5. Soumale 6:59
6. Dounia 4:03
7. African Groove 9:58
8. Ode To Wilbur Ware 7:26
9. Sidi Fini 6:54
10. Acito 3:26
 
Лог создания рипа
Exact Audio Copy V1.0 beta 3 from 29. August 2011
EAC extraction logfile from 18. March 2014, 22:24
Famoudou Don Moye, Baba Sissoko, Maurizio Capone / Folk Bass Spirit Suite
Used drive : TSSTcorpCDDVDW SH-222AB Adapter: 1 ID: 0
Read mode : Secure
Utilize accurate stream : Yes
Defeat audio cache : Yes
Make use of C2 pointers : No
Read offset correction : 6
Overread into Lead-In and Lead-Out : No
Fill up missing offset samples with silence : Yes
Delete leading and trailing silent blocks : No
Null samples used in CRC calculations : Yes
Used interface : Installed external ASPI interface
Gap handling : Appended to previous track
Used output format : User Defined Encoder
Selected bitrate : 896 kBit/s
Quality : High
Add ID3 tag : No
Command line compressor : C:\Program Files\Exact Audio Copy\FLAC\FLAC.EXE
Additional command line options : -6 -V -T "ARTIST=%artist%" -T "TITLE=%title%" -T "ALBUM=%albumtitle%" -T "DATE=%year%" -T "TRACKNUMBER=%tracknr%" -T "GENRE=%genre%" -T "COMMENT=%comment%" -T "BAND=%albuminterpret%" -T "COMPOSER=%composer%" %haslyrics%--tag-from-file=LYRICS="%lyricsfile%"%haslyrics% -T "DISCNUMBER=%cdnumber%" -T "TOTALDISCS=%totalcds%" -T "TOTALTRACKS=%numtracks%" %hascover%--picture="%coverfile%"%hascover% %source% -o %dest%
TOC of the extracted CD
Track | Start | Length | Start sector | End sector
---------------------------------------------------------
1 | 0:00.00 | 6:03.71 | 0 | 27295
2 | 6:03.71 | 5:34.40 | 27296 | 52385
3 | 11:38.36 | 6:05.07 | 52386 | 79767
4 | 17:43.43 | 4:17.34 | 79768 | 99076
5 | 22:01.02 | 6:59.03 | 99077 | 130504
6 | 29:00.05 | 4:03.40 | 130505 | 148769
7 | 33:03.45 | 9:58.54 | 148770 | 193673
8 | 43:02.24 | 7:25.45 | 193674 | 227093
9 | 50:27.69 | 6:54.51 | 227094 | 258194
10 | 57:22.45 | 3:26.58 | 258195 | 273702
Track 1
Filename D:\zzz\01 - Folo Folo.wav
Pre-gap length 0:00:02.00
Peak level 99.8 %
Extraction speed 2.8 X
Track quality 100.0 %
Test CRC 87AA135D
Copy CRC 87AA135D
Track not present in AccurateRip database
Copy OK
Track 2
Filename D:\zzz\02 - Mama Marimba.wav
Peak level 95.6 %
Extraction speed 2.8 X
Track quality 100.0 %
Test CRC FAB200F9
Copy CRC FAB200F9
Track not present in AccurateRip database
Copy OK
Track 3
Filename D:\zzz\03 - Salamandra.wav
Peak level 99.8 %
Extraction speed 2.9 X
Track quality 100.0 %
Test CRC CAB4193B
Copy CRC CAB4193B
Track not present in AccurateRip database
Copy OK
Track 4
Filename D:\zzz\04 - Ma Fille.wav
Peak level 99.8 %
Extraction speed 2.4 X
Track quality 99.9 %
Test CRC 0BC1B3A4
Copy CRC 0BC1B3A4
Track not present in AccurateRip database
Copy OK
Track 5
Filename D:\zzz\05 - Soumale.wav
Peak level 99.9 %
Extraction speed 2.9 X
Track quality 100.0 %
Test CRC 32201101
Copy CRC 32201101
Track not present in AccurateRip database
Copy OK
Track 6
Filename D:\zzz\06 - Dounia.wav
Peak level 99.8 %
Extraction speed 2.7 X
Track quality 100.0 %
Test CRC CD0B5A16
Copy CRC CD0B5A16
Track not present in AccurateRip database
Copy OK
Track 7
Filename D:\zzz\07 - African Groove.wav
Peak level 99.9 %
Extraction speed 2.9 X
Track quality 100.0 %
Test CRC 83553F7E
Copy CRC 83553F7E
Track not present in AccurateRip database
Copy OK
Track 8
Filename D:\zzz\08 - Ode To Wilbur Ware.wav
Peak level 99.8 %
Extraction speed 2.9 X
Track quality 100.0 %
Test CRC 5B0D42FE
Copy CRC 5B0D42FE
Track not present in AccurateRip database
Copy OK
Track 9
Filename D:\zzz\09 - Sidi Fini.wav
Peak level 99.9 %
Extraction speed 2.6 X
Track quality 99.9 %
Test CRC 2835A0B5
Copy CRC 2835A0B5
Track not present in AccurateRip database
Copy OK
Track 10
Filename D:\zzz\10 - Acito.wav
Peak level 99.9 %
Extraction speed 2.6 X
Track quality 100.0 %
Test CRC 50FFDE34
Copy CRC 50FFDE34
Track not present in AccurateRip database
Copy OK
None of the tracks are present in the AccurateRip database
No errors occurred
End of status report
==== Log checksum 35A6AB52C9B83D30FE75688A82E7166DE7EF6B43C4923F7EBB9B15024008AADC ====
 
Содержание индексной карты (.CUE)
REM GENRE Jazz
REM DATE 2004
REM DISCID 810E410A
REM COMMENT "ExactAudioCopy v1.0b3"
PERFORMER "Famoudou Don Moye, Baba Sissoko, Maurizio Capone"
TITLE "Folk Bass Spirit Suite"
FILE "01 - Folo Folo.wav" WAVE
TRACK 01 AUDIO
TITLE "Folo Folo"
PERFORMER "Famoudou Don Moye, Baba Sissoko, Maurizio Capone"
INDEX 01 00:00:00
FILE "02 - Mama Marimba.wav" WAVE
TRACK 02 AUDIO
TITLE "Mama Marimba"
PERFORMER "Famoudou Don Moye, Baba Sissoko, Maurizio Capone"
INDEX 01 00:00:00
FILE "03 - Salamandra.wav" WAVE
TRACK 03 AUDIO
TITLE "Salamandra"
PERFORMER "Famoudou Don Moye, Baba Sissoko, Maurizio Capone"
INDEX 01 00:00:00
FILE "04 - Ma Fille.wav" WAVE
TRACK 04 AUDIO
TITLE "Ma Fille"
PERFORMER "Famoudou Don Moye, Baba Sissoko, Maurizio Capone"
INDEX 01 00:00:00
FILE "05 - Soumale.wav" WAVE
TRACK 05 AUDIO
TITLE "Soumale"
PERFORMER "Famoudou Don Moye, Baba Sissoko, Maurizio Capone"
INDEX 01 00:00:00
FILE "06 - Dounia.wav" WAVE
TRACK 06 AUDIO
TITLE "Dounia"
PERFORMER "Famoudou Don Moye, Baba Sissoko, Maurizio Capone"
INDEX 01 00:00:00
FILE "07 - African Groove.wav" WAVE
TRACK 07 AUDIO
TITLE "African Groove"
PERFORMER "Famoudou Don Moye, Baba Sissoko, Maurizio Capone"
INDEX 01 00:00:00
FILE "08 - Ode To Wilbur Ware.wav" WAVE
TRACK 08 AUDIO
TITLE "Ode To Wilbur Ware"
PERFORMER "Famoudou Don Moye, Baba Sissoko, Maurizio Capone"
INDEX 01 00:00:00
FILE "09 - Sidi Fini.wav" WAVE
TRACK 09 AUDIO
TITLE "Sidi Fini"
PERFORMER "Famoudou Don Moye, Baba Sissoko, Maurizio Capone"
INDEX 01 00:00:00
FILE "10 - Acito.wav" WAVE
TRACK 10 AUDIO
TITLE "Acito"
PERFORMER "Famoudou Don Moye, Baba Sissoko, Maurizio Capone"
INDEX 01 00:00:00
 
Лог проверки качества
d:\>d:\aucdtect -d/-m0 d:\zzz\*.wav
auCDtect: CD records authenticity detector, version 0.8.2
Copyright (c) 2004 Oleg Berngardt. All rights reserved.
Copyright (c) 2004 Alexander Djourik. All rights reserved.
------------------------------------------------------------
Processing file: [01. Folo Folo.wav]
------------------------------------------------------------
This track looks like CDDA with probability 100%
------------------------------------------------------------
Processing file: [02. Mama Marimba.wav]
------------------------------------------------------------
This track looks like CDDA with probability 99%
------------------------------------------------------------
Processing file: [03. Salamandra.wav]
------------------------------------------------------------
This track looks like CDDA with probability 100%
------------------------------------------------------------
Processing file: [04. Ma Fille.wav]
------------------------------------------------------------
This track looks like CDDA with probability 99%
------------------------------------------------------------
Processing file: [05. Soumale.wav]
------------------------------------------------------------
This track looks like CDDA with probability 100%
------------------------------------------------------------
Processing file: [06. Dounia.wav]
------------------------------------------------------------
This track looks like CDDA with probability 100%
------------------------------------------------------------
Processing file: [07. African Groove.wav]
------------------------------------------------------------
This track looks like CDDA with probability 100%
------------------------------------------------------------
Processing file: [08. Ode To Wilbur Ware.wav]
------------------------------------------------------------
This track looks like CDDA with probability 87%
------------------------------------------------------------
Processing file: [09. Sidi Fini.wav]
------------------------------------------------------------
This track looks like CDDA with probability 100%
------------------------------------------------------------
Processing file: [10. Acito.wav]
------------------------------------------------------------
This track looks like CDDA with probability 100%
------------------------------------------------------------
Final Conclusion:
------------------------------------------------------------
These tracks looks like CDDA with probability 100%
Доп. информация:
 
Album Info
(Baba Sissoko) - 1,4,5,6
(Famoudou Don Moye) - 2,8,9
(Maurizio Capone) - 3,7,10
Tribute to Malachi Favors, Marcello Melis, Johnny Dyani, Djeli Baba Sissoko
Recorded and mixed by Piero De Asmundis at Hypnocampos studio in Naples from May 19th to 24th, 2004
Mastered by Bob Fix
Design by Pasquale Ottaiano
Produced by Itinera - Pomigliano Jazz
Artistic production by Famoudou Don Moye - Baba Sissoko - Maurizio Capone
Executive production by Onofrio Piccolo
Text by Carlo Pecoraro, Gianfranco Adduci
Translation by Ileana Sodano
 
Состав
Famoudou Don Moye: congas, karanjan, triangle, drums, vocal
Baba Sissoko: tama, n'goni, kamalen'goni, karanjan, bells, vocal
Maurizio Capone: congas, timbales, bells, steel drum, scatolera, scatolophone, canalina elettrica, vocal
Aldo Vigorito: bass, vocal
Piero De Asmundis: piano, piano Rhodes
Marcello Colasurdo: vocal
Fabiana Martone: vocal
Giovanni Volpe: surdo
Pasquale Panico: guitar
15:01
381
Нет комментариев. Ваш будет первым!