Поиск

(Fusion, Ethnic Jazz, Vocal Jazz, World) [CD] Carmen Souza - Kachupada - 2012, FLAC (tracks+.cue), lossless

(Fusion, Ethnic Jazz, Vocal Jazz, World) [CD] Carmen Souza - Kachupada - 2012, FLAC (tracks+.cue), lossless
Треклист:
Carmen Souza - Kachupada
Жанр: Fusion, Ethnic Jazz, Vocal Jazz, World
Носитель: CD
Год издания: 2012
Издатель (лейбл): Galileo
Номер по каталогу: GMC053
Аудиокодек: FLAC (*.flac)
Тип рипа: tracks+.cue
Битрейт аудио: lossless
Продолжительность: 47:55
Rip by jlgt
Наличие сканов в содержимом раздачи: да
Треклист:
01. Manha 1 de Dezembro (4:35)
02. Donna Lee (2:57)
03. Luta (4:15)
04. My favourite things (5:26)
05. Ivanira (3:42)
06. Xinxiroti (3:56)
07. Terra Sab (4:09)
08. Origem (0:50)
09. 6 on na Tarrafal (3:17)
10. Vida facil (3:48)
11. Tchega (2:36)
12. Koladjazz (4:20)
13. Novo dia (4:04)
 
 
Лог создания рипа
Exact Audio Copy V1.0 beta 3 from 29. August 2011
EAC extraction logfile from 29. March 2014, 13:33
Carmen Souza / Kachupada
Used drive : PLEXTOR DVDR PX-L890SA Adapter: 2 ID: 1
Read mode : Secure
Utilize accurate stream : Yes
Defeat audio cache : Yes
Make use of C2 pointers : No
Read offset correction : 6
Overread into Lead-In and Lead-Out : No
Fill up missing offset samples with silence : Yes
Delete leading and trailing silent blocks : No
Null samples used in CRC calculations : Yes
Used interface : Native Win32 interface for Win NT & 2000
Gap handling : Appended to previous track
Used output format : User Defined Encoder
Selected bitrate : 768 kBit/s
Quality : High
Add ID3 tag : No
Command line compressor : C:\Program Files (x86)\Exact Audio Copy\FLAC\FLAC.EXE
Additional command line options : -8 -V -T "ARTIST=%artist%" -T "TITLE=%title%" -T "ALBUM=%albumtitle%" -T "DATE=%year%" -T "TRACKNUMBER=%tracknr%" -T "TOTALTRACKS=%numtracks%" -T "GENRE=%genre%" -T "ALBUMARTIST=%albumartist%" -T "ALBUM ARTIST=%albumartist%" -T "COMMENT=EAC Secure Mode, Test & Copy, AccurateRip, FLAC -8" %source%
TOC of the extracted CD
Track | Start | Length | Start sector | End sector
---------------------------------------------------------
1 | 0:00.00 | 4:34.47 | 0 | 20596
2 | 4:34.47 | 2:57.24 | 20597 | 33895
3 | 7:31.71 | 4:15.12 | 33896 | 53032
4 | 11:47.08 | 5:25.38 | 53033 | 77445
5 | 17:12.46 | 3:41.55 | 77446 | 94075
6 | 20:54.26 | 3:55.52 | 94076 | 111752
7 | 24:50.03 | 4:09.36 | 111753 | 130463
8 | 28:59.39 | 0:49.40 | 130464 | 134178
9 | 29:49.04 | 3:17.18 | 134179 | 148971
10 | 33:06.22 | 3:48.05 | 148972 | 166076
11 | 36:54.27 | 2:36.26 | 166077 | 177802
12 | 39:30.53 | 4:20.09 | 177803 | 197311
13 | 43:50.62 | 4:04.04 | 197312 | 215615
Track 1
Filename H:\Flac Rips\01 - Manha 1 de Dezembro.wav
Pre-gap length 0:00:02.00
Peak level 96.0 %
Extraction speed 3.6 X
Track quality 100.0 %
Test CRC 622B61AF
Copy CRC 622B61AF
Accurately ripped (confidence 5) [A4AED6F8] (AR v2)
Copy OK
Track 2
Filename H:\Flac Rips\02 - Donna Lee.wav
Pre-gap length 0:00:02.00
Peak level 98.8 %
Extraction speed 3.7 X
Track quality 100.0 %
Test CRC 850EE4E4
Copy CRC 850EE4E4
Accurately ripped (confidence 5) [BBE03989] (AR v2)
Copy OK
Track 3
Filename H:\Flac Rips\03 - Luta.wav
Pre-gap length 0:00:02.00
Peak level 99.9 %
Extraction speed 4.2 X
Track quality 100.0 %
Test CRC CAEAD1AA
Copy CRC CAEAD1AA
Accurately ripped (confidence 5) [538D4005] (AR v2)
Copy OK
Track 4
Filename H:\Flac Rips\04 - My favourite things.wav
Pre-gap length 0:00:02.00
Peak level 98.8 %
Extraction speed 4.8 X
Track quality 100.0 %
Test CRC 3D3C5363
Copy CRC 3D3C5363
Accurately ripped (confidence 5) [024D55CC] (AR v2)
Copy OK
Track 5
Filename H:\Flac Rips\05 - Ivanira.wav
Pre-gap length 0:00:02.00
Peak level 97.0 %
Extraction speed 3.8 X
Track quality 99.9 %
Test CRC 00B53375
Copy CRC 00B53375
Accurately ripped (confidence 5) [822D0CBD] (AR v2)
Copy OK
Track 6
Filename H:\Flac Rips\06 - Xinxiroti.wav
Pre-gap length 0:00:02.00
Peak level 98.8 %
Extraction speed 4.1 X
Track quality 99.9 %
Test CRC 83E8C86C
Copy CRC 83E8C86C
Accurately ripped (confidence 5) [9A8847CB] (AR v2)
Copy OK
Track 7
Filename H:\Flac Rips\07 - Terra Sab.wav
Pre-gap length 0:00:02.00
Peak level 98.8 %
Extraction speed 5.5 X
Track quality 100.0 %
Test CRC 153DF4E0
Copy CRC 153DF4E0
Accurately ripped (confidence 5) [35363D6D] (AR v2)
Copy OK
Track 8
Filename H:\Flac Rips\08 - Origem.wav
Pre-gap length 0:00:02.00
Peak level 98.8 %
Extraction speed 3.6 X
Track quality 100.0 %
Test CRC BB049157
Copy CRC BB049157
Accurately ripped (confidence 5) [5F5E7469] (AR v2)
Copy OK
Track 9
Filename H:\Flac Rips\09 - 6 on na Tarrafal.wav
Pre-gap length 0:00:02.00
Peak level 98.8 %
Extraction speed 5.5 X
Track quality 100.0 %
Test CRC 2B4071E2
Copy CRC 2B4071E2
Accurately ripped (confidence 5) [59CCA5A8] (AR v2)
Copy OK
Track 10
Filename H:\Flac Rips\10 - Vida facil.wav
Pre-gap length 0:00:02.00
Peak level 98.8 %
Extraction speed 4.6 X
Track quality 99.9 %
Test CRC D2E2591B
Copy CRC D2E2591B
Accurately ripped (confidence 5) [E680A07A] (AR v2)
Copy OK
Track 11
Filename H:\Flac Rips\11 - Tchega.wav
Pre-gap length 0:00:02.00
Peak level 98.8 %
Extraction speed 4.2 X
Track quality 99.9 %
Test CRC 93BF747E
Copy CRC 93BF747E
Accurately ripped (confidence 5) [F08F72E2] (AR v2)
Copy OK
Track 12
Filename H:\Flac Rips\12 - Koladjazz.wav
Pre-gap length 0:00:02.00
Peak level 98.8 %
Extraction speed 6.3 X
Track quality 100.0 %
Test CRC 13846347
Copy CRC 13846347
Accurately ripped (confidence 5) [2C529346] (AR v2)
Copy OK
Track 13
Filename H:\Flac Rips\13 - Novo dia.wav
Pre-gap length 0:00:02.00
Peak level 98.8 %
Extraction speed 5.2 X
Track quality 99.9 %
Test CRC 3E11CA4A
Copy CRC 3E11CA4A
Accurately ripped (confidence 5) [EBCB8309] (AR v2)
Copy OK
All tracks accurately ripped
No errors occurred
End of status report
==== Log checksum 13F47A6AED21AB2CB953BBA9949E15D0EA9850E670DE15A444F7BC44984DD784 ====
 
Содержание индексной карты (.CUE)
REM GENRE Jazz
REM DATE 2012
REM DISCID B20B3A0D
REM COMMENT "ExactAudioCopy v1.0b3"
PERFORMER "Carmen Souza"
TITLE "Kachupada"
FILE "01 - Manha 1 de Dezembro.wav" WAVE
TRACK 01 AUDIO
TITLE "Manha 1 de Dezembro"
PERFORMER "Carmen Souza"
INDEX 01 00:00:00
TRACK 02 AUDIO
TITLE "Donna Lee"
PERFORMER "Carmen Souza"
INDEX 00 04:32:47
FILE "02 - Donna Lee.wav" WAVE
INDEX 01 00:00:00
TRACK 03 AUDIO
TITLE "Luta"
PERFORMER "Carmen Souza"
INDEX 00 02:55:24
FILE "03 - Luta.wav" WAVE
INDEX 01 00:00:00
TRACK 04 AUDIO
TITLE "My favourite things"
PERFORMER "Carmen Souza"
INDEX 00 04:13:12
FILE "04 - My favourite things.wav" WAVE
INDEX 01 00:00:00
TRACK 05 AUDIO
TITLE "Ivanira"
PERFORMER "Carmen Souza"
INDEX 00 05:23:38
FILE "05 - Ivanira.wav" WAVE
INDEX 01 00:00:00
TRACK 06 AUDIO
TITLE "Xinxiroti"
PERFORMER "Carmen Souza"
INDEX 00 03:39:55
FILE "06 - Xinxiroti.wav" WAVE
INDEX 01 00:00:00
TRACK 07 AUDIO
TITLE "Terra Sab"
PERFORMER "Carmen Souza"
INDEX 00 03:53:52
FILE "07 - Terra Sab.wav" WAVE
INDEX 01 00:00:00
TRACK 08 AUDIO
TITLE "Origem"
PERFORMER "Carmen Souza"
INDEX 00 04:07:36
FILE "08 - Origem.wav" WAVE
INDEX 01 00:00:00
TRACK 09 AUDIO
TITLE "6 on na Tarrafal"
PERFORMER "Carmen Souza"
INDEX 00 00:47:40
FILE "09 - 6 on na Tarrafal.wav" WAVE
INDEX 01 00:00:00
TRACK 10 AUDIO
TITLE "Vida facil"
PERFORMER "Carmen Souza"
INDEX 00 03:15:18
FILE "10 - Vida facil.wav" WAVE
INDEX 01 00:00:00
TRACK 11 AUDIO
TITLE "Tchega"
PERFORMER "Carmen Souza"
INDEX 00 03:46:05
FILE "11 - Tchega.wav" WAVE
INDEX 01 00:00:00
TRACK 12 AUDIO
TITLE "Koladjazz"
PERFORMER "Carmen Souza"
INDEX 00 02:34:26
FILE "12 - Koladjazz.wav" WAVE
INDEX 01 00:00:00
TRACK 13 AUDIO
TITLE "Novo dia"
PERFORMER "Carmen Souza"
INDEX 00 04:18:09
FILE "13 - Novo dia.wav" WAVE
INDEX 01 00:00:00
 
Состав
Carmen Souza - vocals, acoustic guitar, upright piano
Theo Pas'Cal - bass, percussions, guitars, back vocals
Mauricio Zottarelli - drums
Nelson Oliveira - back vocals, bongos
Jonathan Idiagbonya - piano
Tuche - acoustic guitars
Joao Frade - accordion
Mauricio Zottarelli - drums, percussions
Guto Lucena - flute, tenor sax
Zoe Pas'Cal - percussions
Joao Moreira - flugelhorn
Anton Dinha Maria - percussions
Antonio Souza - acoustic bedja old guitar
15:00
680
Нет комментариев. Ваш будет первым!