Поиск

(Soul-Jazz) [CD] Takehiro Honda - What's Going On - 1973 (2012 Japan Edition), FLAC (tracks+.cue), lossless

(Soul-Jazz) [CD] Takehiro Honda - What's Going On - 1973 (2012 Japan Edition), FLAC (tracks+.cue), lossless
Треклист:
Takehiro Honda - What's Going On
Жанр: Soul-Jazz
Носитель: CD
Страна-производитель диска (релиза): Япония
Год издания: 1973 (2012)
Издатель (лейбл): Solid Records/Ultra-Vybe, Inc.
Номер по каталогу: CDSOL-1482
Аудиокодек: FLAC (*.flac)
Тип рипа: tracks+.cue
Битрейт аудио: lossless
Продолжительность: 34:52
Источник (релизер): measet (what)
Наличие сканов в содержимом раздачи: да
Треклист:
01. Ain't Tell You a Good Way But (Honda) - 3:32
02. Check-Out Your Mind (Mayfield) - 5:15
03. Ain't Funky Now (Honda) - 4:34
04. What's Going On (Cleveland-Gaye-Benson) - 4:42
05. Sham Time (Harris) - 5:13
06. Greasy Spoon (Hooper) - 5:42
07. Dock of the Bay (Cropper-Redding) - 5:54
Состав:
Takehiro Honda - piano, electric piano, Hammond
Tetsuo Fushimi, Shuzo Morikawa - trumpet
Teddy Adams - trombone
Kosuke Mine - alto saxophone
Kazunori Takeda - tenor saxophone
James Cheek, Takuji Kusumoto - drums
Tamio Kawabata - bass
Ken Lawson - guitar
Yuji Imamura - congas
 
Лог создания рипа
Exact Audio Copy V1.1 from 23. June 2015
EAC extraction logfile from 15. March 2016, 13:39
Takehiro Honda / What's Going On
Used drive : HL-DT-STDVD+-RW GS30N Adapter: 1 ID: 0
Read mode : Secure
Utilize accurate stream : Yes
Defeat audio cache : Yes
Make use of C2 pointers : No
Read offset correction : 667
Overread into Lead-In and Lead-Out : No
Fill up missing offset samples with silence : Yes
Delete leading and trailing silent blocks : No
Null samples used in CRC calculations : Yes
Used interface : Native Win32 interface for Win NT & 2000
Gap handling : Appended to previous track
Used output format : User Defined Encoder
Selected bitrate : 1024 kBit/s
Quality : High
Add ID3 tag : No
Command line compressor : C:\Program Files (x86)\Exact Audio Copy\FLAC\FLAC.EXE
Additional command line options : -6 -V -T "ARTIST=%artist%" -T "TITLE=%title%" -T "ALBUM=%albumtitle%" -T "DATE=%year%" -T "TRACKNUMBER=%tracknr%" -T "GENRE=%genre%" -T "COMMENT=%comment%" -T "BAND=%albuminterpret%" -T "ALBUMARTIST=%albuminterpret%" -T "COMPOSER=%composer%" %haslyrics%--tag-from-file=LYRICS="%lyricsfile%"%haslyrics% -T "DISCNUMBER=%cdnumber%" -T "TOTALDISCS=%totalcds%" -T "TOTALTRACKS=%numtracks%" %hascover%--picture="%coverfile%"%hascover% %source% -o %dest%
TOC of the extracted CD
Track | Start | Length | Start sector | End sector
---------------------------------------------------------
1 | 0:00.00 | 3:32.34 | 0 | 15933
2 | 3:32.34 | 5:15.24 | 15934 | 39582
3 | 8:47.58 | 4:33.43 | 39583 | 60100
4 | 13:21.26 | 4:41.73 | 60101 | 81248
5 | 18:03.24 | 5:13.10 | 81249 | 104733
6 | 23:16.34 | 5:42.00 | 104734 | 130383
7 | 28:58.34 | 5:53.69 | 130384 | 156927
Track 1
Filename D:\music\Takehiro Honda - What's Going On\01. Takehiro Honda - Ain't Tell You A Good Way But.wav
Pre-gap length 0:00:02.00
Peak level 98.3 %
Extraction speed 2.3 X
Track quality 99.9 %
Test CRC EC96A9B4
Copy CRC EC96A9B4
Accurately ripped (confidence 1) [53DA2A1B] (AR v2)
Copy OK
Track 2
Filename D:\music\Takehiro Honda - What's Going On\02. Takehiro Honda - Check-Out Your Mind.wav
Peak level 98.3 %
Extraction speed 3.2 X
Track quality 100.0 %
Test CRC DAA1E2BF
Copy CRC DAA1E2BF
Accurately ripped (confidence 1) [3C5D4339] (AR v2)
Copy OK
Track 3
Filename D:\music\Takehiro Honda - What's Going On\03. Takehiro Honda - Ain't Funky Now.wav
Peak level 98.2 %
Extraction speed 3.0 X
Track quality 99.9 %
Test CRC 1C7FF5F2
Copy CRC 1C7FF5F2
Accurately ripped (confidence 1) [53A3C87F] (AR v2)
Copy OK
Track 4
Filename D:\music\Takehiro Honda - What's Going On\04. Takehiro Honda - What's Going On.wav
Peak level 98.3 %
Extraction speed 3.9 X
Track quality 100.0 %
Test CRC 47001396
Copy CRC 47001396
Accurately ripped (confidence 1) [23D5E790] (AR v2)
Copy OK
Track 5
Filename D:\music\Takehiro Honda - What's Going On\05. Takehiro Honda - Sham Time.wav
Peak level 98.2 %
Extraction speed 4.2 X
Track quality 100.0 %
Test CRC 1AE923D2
Copy CRC 1AE923D2
Accurately ripped (confidence 1) [AC62B732] (AR v2)
Copy OK
Track 6
Filename D:\music\Takehiro Honda - What's Going On\06. Takehiro Honda - Greasy Spoon.wav
Peak level 98.3 %
Extraction speed 4.5 X
Track quality 100.0 %
Test CRC B263040B
Copy CRC B263040B
Accurately ripped (confidence 1) [D0197DF2] (AR v2)
Copy OK
Track 7
Filename D:\music\Takehiro Honda - What's Going On\07. Takehiro Honda - Sitting On The Dock Of The Bay.wav
Peak level 98.3 %
Extraction speed 4.2 X
Track quality 99.9 %
Test CRC 4420AB89
Copy CRC 4420AB89
Accurately ripped (confidence 1) [9CC72AC7] (AR v2)
Copy OK
All tracks accurately ripped
No errors occurred
End of status report
---- CUETools DB Plugin V2.1.6
[CTDB TOCID: .6vDOeQZ5UiAqXMNfTmN9ErsoMA-] found
Submit result: .6vDOeQZ5UiAqXMNfTmN9ErsoMA- has been confirmed
Track | CTDB Status
1 | (3/3) Accurately ripped
2 | (3/3) Accurately ripped
3 | (3/3) Accurately ripped
4 | (3/3) Accurately ripped
5 | (3/3) Accurately ripped
6 | (3/3) Accurately ripped
7 | (3/3) Accurately ripped
==== Log checksum B2C4455AAC719BAE13A254B2964C2A03F5761567CC50886FF52A85D2F97254C6 ====
 
Содержание индексной карты (.CUE)
REM GENRE Jazz
REM DATE 1973
REM DISCID 53082C07
REM COMMENT "ExactAudioCopy v1.1"
PERFORMER "Takehiro Honda"
TITLE "What's Going On"
FILE "01 - Ain't Tell You a Good Way But.wav" WAVE
TRACK 01 AUDIO
TITLE "Ain't Tell You a Good Way But"
PERFORMER "Takehiro Honda"
ISRC JPS800660490
INDEX 01 00:00:00
FILE "02 - Check-Out Your Mind.wav" WAVE
TRACK 02 AUDIO
TITLE "Check-Out Your Mind"
PERFORMER "Takehiro Honda"
ISRC JPS800660491
INDEX 01 00:00:00
FILE "03 - Ain't Funky Now.wav" WAVE
TRACK 03 AUDIO
TITLE "Ain't Funky Now"
PERFORMER "Takehiro Honda"
ISRC JPS800660492
INDEX 01 00:00:00
FILE "04 - What's Going On.wav" WAVE
TRACK 04 AUDIO
TITLE "What's Going On"
PERFORMER "Takehiro Honda"
ISRC JPS800660493
INDEX 01 00:00:00
FILE "05 - Sham Time.wav" WAVE
TRACK 05 AUDIO
TITLE "Sham Time"
PERFORMER "Takehiro Honda"
ISRC JPS800660494
INDEX 01 00:00:00
FILE "06 - Greasy Spoon.wav" WAVE
TRACK 06 AUDIO
TITLE "Greasy Spoon"
PERFORMER "Takehiro Honda"
ISRC JPS800660495
INDEX 01 00:00:00
FILE "07 - Dock of the Bay.wav" WAVE
TRACK 07 AUDIO
TITLE "Dock of the Bay"
PERFORMER "Takehiro Honda"
ISRC JPS800660496
INDEX 01 00:00:00
 
Отчет CUETools
[CUETools log; Date: 19.03.2016 0:32:47; Version: 2.1.5]
[CTDB TOCID: .6vDOeQZ5UiAqXMNfTmN9ErsoMA-] found.
Track | CTDB Status
1 | (4/4) Accurately ripped
2 | (4/4) Accurately ripped
3 | (4/4) Accurately ripped
4 | (4/4) Accurately ripped
5 | (4/4) Accurately ripped
6 | (4/4) Accurately ripped
7 | (4/4) Accurately ripped
[AccurateRip ID: 0008fc71-0036d637-53082c07] found.
Track [ CRC | V2 ] Status
01 [ca7266e6|53da2a1b] (0+1/1) Accurately ripped
02 [51d76f81|3c5d4339] (0+1/1) Accurately ripped
03 [7536f5ee|53a3c87f] (0+1/1) Accurately ripped
04 [49b03553|23d5e790] (0+1/1) Accurately ripped
05 [177fe03f|ac62b732] (0+1/1) Accurately ripped
06 [d7bf852a|d0197df2] (0+1/1) Accurately ripped
07 [abd8f334|9cc72ac7] (0+1/1) Accurately ripped
Track Peak [ CRC32 ] [W/O NULL] [ LOG ]
-- 98,3 [E20F0EB1] [B49C1FF2]
01 98,3 [EC96A9B4] [09CB0966] CRC32
02 98,3 [DAA1E2BF] [1B148184] CRC32
03 98,2 [1C7FF5F2] [C8754BFD] CRC32
04 98,3 [47001396] [9E48E8A0] CRC32
05 98,2 [1AE923D2] [833BF606] CRC32
06 98,3 [B263040B] [1CB38BBF] CRC32
07 98,2 [4420AB89] [967DF3DA] CRC32
 
AllMusic Review by Jason Ankeny
Recorded in the U.S. with arranger Teddy Adams, What's Going On embraces in full the American influences that shape it -- the polemical R&B of James Brown and Marvin Gaye looms heavy via covers of "Ain't It Funky Now" and the title cut, while the sound and sensibility clearly draw from West coast soul-jazz innovators like Les McCann and Gerald Wilson. But the curiosity and estrangement inherent in the album's stranger-in-a-strange-land origins are in fact its dominant element: Takehiro Honda doesn't simply channel his myriad influences, he also dissects them, taking them apart and putting them back together to understand how they work. The result is a wonderfully eccentric and heartfelt interpretation of American funk rendered in distinctly Japanese terms -- studious but a bit goofy, formal yet passionately groovy.
Приватный:
Нет (DHT включён)
Размер:
271.88 Мб (285,087,257 байт) » файлов: 18
Участники:
0 раздают, 0 качают (0 участников всего)
Внешние участники:
5 раздают, 1 качают (6 участников всего) [ Обновить ]
Есть вопросы - пишите личное сообщение пользователю M0p94ok.
10:19
47
Нет комментариев. Ваш будет первым!